Elysium.2013.German.DL.2160p.WEB-DL.x265-NIMA4K

15. März 2016 von
Elysium.2013.German.DL.2160p.WEB-DL.x265-NIMA4K Warez-World
Aufrufe: 95 Hits
Vote 4 Us
Release:
Elysium
Genre:
Action, Fantasy, Krimi, Science-Fiction, Thriller
Größe:
45762 MB
Passwort:
Warez-World.org
Sprachen:
Video Codec:
ISO
Bewertung:
Video Vorschau:
Online Stream:
Hinweise:
Auflösung:
3840x1608
Bitrate:
German AC-
Video Source:
BluRay
Info:
Zeige NFOVerberge NFO
General
Unique ID                                : 140398270527987988983626424718029969534 (0x699FB92C7B96CC05B6BB3E5E122F587E)
Complete name                            : Elysium.2013.German.DL.2160p.WEB-DL.x265-NIMA4K.mkv
Format                                   : Matroska
Format version                           : Version 4 / Version 2
File size                                : 44.5 GiB
Duration                                 : 1h 49mn
Overall bit rate                         : 58.2 Mbps
Movie name                               : Elysium 2013
Encoded date                             : UTC 2016-02-13 20:35:39
Writing application                      : mkvmerge v7.3.0 ('Nouages') 64bit built on Oct 23 2014 13:14:01
Writing library                          : libebml v1.3.0 + libmatroska v1.4.1
DURATION                                 : 01:39:37.430000000
NUMBER_OF_FRAMES                         : 1063
NUMBER_OF_BYTES                          : 36949
_STATISTICS_WRITING_APP                  : mkvmerge v7.3.0 ('Nouages') 64bit built on Oct 23 2014 13:14:01
_STATISTICS_WRITING_DATE_UTC             : 2016-02-13 20:35:39
_STATISTICS_TAGS                         : BPS DURATION NUMBER_OF_FRAMES NUMBER_OF_BYTES

Video
ID                                       : 1
Format                                   : HEVC
Format/Info                              : High Efficiency Video Coding
Codec ID                                 : V_MPEGH/ISO/HEVC
Duration                                 : 1h 49mn
Bit rate                                 : 56.6 Mbps
Width                                    : 3 840 pixels
Height                                   : 1 608 pixels
Display aspect ratio                     : 2.40:1
Frame rate mode                          : Constant
Frame rate                               : 23.976 fps
Bits/(Pixel*Frame)                       : 0.382
Stream size                              : 43.3 GiB (97%)
Language                                 : English
Default                                  : Yes
Forced                                   : No
DURATION                                 : 01:49:33.536000000
NUMBER_OF_FRAMES                         : 205423
NUMBER_OF_BYTES                          : 368118016
_STATISTICS_WRITING_APP                  : mkvmerge v7.3.0 ('Nouages') 64bit built on Oct 23 2014 13:14:01
_STATISTICS_WRITING_DATE_UTC             : 2016-02-13 20:35:39
_STATISTICS_TAGS                         : BPS DURATION NUMBER_OF_FRAMES NUMBER_OF_BYTES

Audio
ID                                       : 2
Format                                   : AC-3
Format/Info                              : Audio Coding 3
Mode extension                           : CM (complete main)
Format settings, Endianness              : Big
Codec ID                                 : A_AC3
Duration                                 : 1h 49mn
Bit rate mode                            : Constant
Bit rate                                 : 448 Kbps
Channel(s)                               : 6 channels
Channel positions                        : Front: L C R, Side: L R, LFE
Sampling rate                            : 48.0 KHz
Bit depth                                : 16 bits
Compression mode                         : Lossy
Stream size                              : 351 MiB (1%)
Language                                 : German
Default                                  : Yes
Forced                                   : Yes

Text #1
ID                                       : 3
Format                                   : UTF-8
Codec ID                                 : S_TEXT/UTF8
Codec ID/Info                            : UTF-8 Plain Text
Title                                    : Forced
Language                                 : English
Default                                  : No
Forced                                   : No

Text #2
ID                                       : 4
Format                                   : UTF-8
Codec ID                                 : S_TEXT/UTF8
Codec ID/Info                            : UTF-8 Plain Text
Language                                 : English
Default                                  : No
Forced                                   : No

Menu
00:00:00.000                             : en:00:00:00.000
00:07:02.589                             : en:00:07:02.589
00:11:59.344                             : en:00:11:59.344
00:19:27.625                             : en:00:19:27.625
00:25:34.825                             : en:00:25:34.825
00:30:02.342                             : en:00:30:02.342
00:39:22.068                             : en:00:39:22.068
00:57:43.960                             : en:00:57:43.960
01:00:59.197                             : en:01:00:59.197
01:04:09.637                             : en:01:04:09.637
01:07:22.664                             : en:01:07:22.664
01:10:34.147                             : en:01:10:34.147
01:16:59.865                             : en:01:16:59.865
01:22:50.132                             : en:01:22:50.132
01:30:19.914                             : en:01:30:19.914
01:35:44.530                             : en:01:35:44.530


Beschreibung:
Elysium.2013.German.DL.2160p.WEB-DL.x265-NIMA4K
Im Jahre 2154 existieren zwei Klassen von Menschen: die Superreichen, die auf einer makellosen, menschengemachten Raumstation namens Elysium wohnen, und die Übrigen, die auf der überbevölkerten, völlig zerstörten Erde hausen. Ministerin Delacourt (Jodie Foster) verteidigt den luxuriösen Lebensstil der Bewohner von Elysium um jeden Preis, doch die Menschen auf der Erde versuchen mit allen Mitteln bis Elysium vorzudringen. Max (Matt Damon) lässt sich auf eine lebensgefährliche Mission ein, die eine Gleichstellung dieser polarisierten Welten bewirken könnte.
Width : 3 840 pixels Height : 1 608 pixels Display aspect ratio : 2.40:1 Frame rate mode : Constant Frame rate : 23.976 fps Bits/(Pixel*Frame) : 0.382
Direct Download Links | DDL-Links

Ähnliche Releases der Kategorie