Erschuetternde.Wahrheit.2015.German.BDRiP.AC3.XViD-CRG

2. Juli 2016 von
Erschuetternde.Wahrheit.2015.German.BDRiP.AC3.XViD-CRG Warez-World
Aufrufe: 37 Hits
Vote 4 Us
Release:
Erschütternde Wahrheit BD-RIP
Genre:
Drama
Laufzeit:
118 Min.
Größe:
1739 MB
Passwort:
Warez-World.org
Sprachen:
Video Codec:
MPEG-4 DivX / Xvid
Audio Stream:
Dolby Digital 5.1
Bewertung:
Video Vorschau:
Online Stream:
Info:
Zeige NFOVerberge NFO
General
Format                                   : AVI
Format/Info                              : Audio Video Interleave
File size                                : 1.70 GiB
Duration                                 : 2h 2mn
Overall bit rate                         : 1 980 Kbps

Video
ID                                       : 0
Format                                   : MPEG-4 Visual
Format settings, BVOP                    : 2
Format settings, QPel                    : No
Format settings, GMC                     : No warppoints
Format settings, Matrix                  : Default (H.263)
Codec ID                                 : XVID
Codec ID/Hint                            : XviD
Duration                                 : 2h 2mn
Bit rate                                 : 1 524 Kbps
Width                                    : 720 pixels
Height                                   : 304 pixels
Display aspect ratio                     : 2.35:1
Frame rate                               : 23.976 fps
Color space                              : YUV
Chroma subsampling                       : 4:2:0
Bit depth                                : 8 bits
Scan type                                : Progressive
Compression mode                         : Lossy
Bits/(Pixel*Frame)                       : 0.290
Stream size                              : 1.31 GiB (77%)
Writing library                          : XviD 1.2.1 (UTC 2008-12-04)

Audio
ID                                       : 1
Format                                   : AC-3
Format/Info                              : Audio Coding 3
Mode extension                           : CM (complete main)
Format settings, Endianness              : Big
Codec ID                                 : 2000
Duration                                 : 2h 2mn
Bit rate mode                            : Constant
Bit rate                                 : 448 Kbps
Channel(s)                               : 6 channels
Channel positions                        : Front: L C R, Side: L R, LFE
Sampling rate                            : 48.0 KHz
Compression mode                         : Lossy
Stream size                              : 394 MiB (23%)
Alignment                                : Aligned on interleaves
Interleave, duration                     : 64 ms (1.53 video frames)
Interleave, preload duration             : 192 ms
Title                                    : T2_Audio - German_new

Beschreibung:
Erschuetternde.Wahrheit.2015.German.BDRiP.AC3.XViD-CRG
Dr. Bennet Omalu, ein brillanter Facharzt für forensische Neuropathologie, entdeckt als Erster bei einem Profi-Sportler das Phänomen der CTE - ein durch Sport verursachtes Hirntrauma. Bei seinem Kampf, diese Wahrheit an die Öffentlichkeit zu bringen, führen Omalus emotional mitreißende Nachforschungen zu einer gefährlichen Auseinandersetzung mit einer der mächtigsten - und meistgeliebten - Institutionen der Welt.
Direct Download Links | DDL-Links

Ähnliche Releases der Kategorie