The.Expendables.Trilogie.2010-2014.German.DTS-TrueHD.DL.1080p.BluRay.x264-REMUX

16. Juli 2016 von
The.Expendables.Trilogie.2010-2014.German.DTS-TrueHD.DL.1080p.BluRay.x264-REMUX Warez-World
Aufrufe: 91 Hits
Vote 4 Us
Release:
The Expendables Trilogie BD
Genre:
Thriller
Laufzeit:
133 Min.
Größe:
67650 MB
Passwort:
Warez-World.org
Sprachen:
Video Codec:
MPEG-4 H.264 / AVC
Audio Stream:
Dolby Digital 5.1
Bewertung:
Video Vorschau:
Online Stream:
Info:
Zeige NFOVerberge NFO
----------------------------------------------------------------------------------------------
The.Expendables.1.2010.German.DTS.HD.DL.1080p.BluRay.Remux
----------------------------------------------------------------------------------------------

General
Format                                   : Matroska
Format version                           : Version 4 / Version 2
File size                                : 14.7 GiB
Duration                                 : 1h 43mn
Overall bit rate                         : 20.2 Mbps
Movie name                               : The Expendables
Encoded date                             : UTC 2016-05-04 19:33:35
Writing application                      : mkvmerge v7.9.0 ('Birds') 64bit
Writing library                          : libebml v1.3.1 + libmatroska v1.4.2
DURATION                                 : 01:35:05.950000000
NUMBER_OF_FRAMES                         : 106
NUMBER_OF_BYTES                          : 334859
_STATISTICS_WRITING_APP                  : mkvmerge v7.9.0 ('Birds') 64bit
_STATISTICS_WRITING_DATE_UTC             : 2016-05-04 19:33:35
_STATISTICS_TAGS                         : BPS DURATION NUMBER_OF_FRAMES NUMBER_OF_BYTES

Video
ID                                       : 1
Format                                   : VC-1
Codec ID                                 : V_MS/VFW/FOURCC / WVC1
Codec ID/Hint                            : Microsoft
Duration                                 : 1h 43mn
Bit rate                                 : 14.7 Mbps
Width                                    : 1 920 pixels
Height                                   : 1 080 pixels
Display aspect ratio                     : 16:9
Frame rate mode                          : Constant
Frame rate                               : 23.976 fps
Color space                              : YUV
Chroma subsampling                       : 4:2:0
Bit depth                                : 8 bits
Scan type                                : Progressive
Compression mode                         : Lossy
Bits/(Pixel*Frame)                       : 0.295
Stream size                              : 10.7 GiB (73%)
Title                                    : The Expendables
Language                                 : German
Default                                  : Yes
Forced                                   : No

Audio #1
ID                                       : 2
Format                                   : DTS
Format/Info                              : Digital Theater Systems
Format profile                           : HRA / Core
Mode                                     : 16
Format settings, Endianness              : Big
Codec ID                                 : A_DTS
Duration                                 : 1h 43mn
Bit rate mode                            : Constant
Bit rate                                 : 2 559 Kbps / 1 509 Kbps
Channel(s)                               : 8 channels / 6 channels
Channel positions                        : Front: L C R, Side: L R, Back: L R, LFE / Front: L C R, Side: L R, LFE
Sampling rate                            : 48.0 KHz
Bit depth                                : 24 bits
Compression mode                         : Lossy
Stream size                              : 1.86 GiB (13%)
Language                                 : German
Default                                  : Yes
Forced                                   : Yes

Audio #2
ID                                       : 3
Format                                   : DTS
Format/Info                              : Digital Theater Systems
Format profile                           : HRA / Core
Mode                                     : 16
Format settings, Endianness              : Big
Codec ID                                 : A_DTS
Duration                                 : 1h 43mn
Bit rate mode                            : Constant
Bit rate                                 : 2 559 Kbps / 1 509 Kbps
Channel(s)                               : 8 channels / 6 channels
Channel positions                        : Front: L C R, Side: L R, Back: L R, LFE / Front: L C R, Side: L R, LFE
Sampling rate                            : 48.0 KHz
Bit depth                                : 24 bits
Compression mode                         : Lossy
Stream size                              : 1.86 GiB (13%)
Language                                 : English
Default                                  : No
Forced                                   : No

Text #1
ID                                       : 4
Format                                   : PGS
Muxing mode                              : zlib
Codec ID                                 : S_HDMV/PGS
Codec ID/Info                            : Picture based subtitle format used on BDs/HD-DVDs
Title                                    : German Forced
Language                                 : German
Default                                  : Yes
Forced                                   : Yes

Text #2
ID                                       : 5
Format                                   : PGS
Muxing mode                              : zlib
Codec ID                                 : S_HDMV/PGS
Codec ID/Info                            : Picture based subtitle format used on BDs/HD-DVDs
Title                                    : HDMV PGS German
Language                                 : German
Default                                  : No
Forced                                   : No

Menu
00:00:00.000                             : en:00:00:00.000
00:10:04.354                             : en:00:10:04.354
00:18:48.169                             : en:00:18:48.169
00:24:56.370                             : en:00:24:56.370
00:31:33.099                             : en:00:31:33.099
00:38:37.857                             : en:00:38:37.857
00:48:27.279                             : en:00:48:27.279
00:57:29.321                             : en:00:57:29.321
01:07:06.689                             : en:01:07:06.689
01:15:14.927                             : en:01:15:14.927
01:25:23.910                             : en:01:25:23.910
01:33:24.724                             : en:01:33:24.724


----------------------------------------------------------------------------------------------
The.Expendables.2.Uncut.2012.German.DTS.DL.1080p.BluRay.Remux
----------------------------------------------------------------------------------------------

General
Format                                   : Matroska
Format version                           : Version 4 / Version 2
File size                                : 20.8 GiB
Duration                                 : 1h 42mn
Overall bit rate mode                    : Variable
Overall bit rate                         : 29.0 Mbps
Movie name                               : The Expendables 2
Encoded date                             : UTC 2016-05-06 07:33:06
Writing application                      : mkvmerge v7.9.0 ('Birds') 64bit
Writing library                          : libebml v1.3.1 + libmatroska v1.4.2
DURATION                                 : 01:32:26.332000000
NUMBER_OF_FRAMES                         : 20
NUMBER_OF_BYTES                          : 82975
_STATISTICS_WRITING_APP                  : mkvmerge v7.9.0 ('Birds') 64bit
_STATISTICS_WRITING_DATE_UTC             : 2016-05-06 07:33:06
_STATISTICS_TAGS                         : BPS DURATION NUMBER_OF_FRAMES NUMBER_OF_BYTES

Video
ID                                       : 1
Format                                   : AVC
Format/Info                              : Advanced Video Codec
Format settings, CABAC                   : Yes
Format settings, ReFrames                : 4 frames
Codec ID                                 : V_MPEG4/ISO/AVC
Duration                                 : 1h 42mn
Bit rate mode                            : Variable
Bit rate                                 : 25.4 Mbps
Maximum bit rate                         : 32.0 Mbps
Width                                    : 1 920 pixels
Height                                   : 1 080 pixels
Display aspect ratio                     : 16:9
Frame rate mode                          : Constant
Frame rate                               : 23.976 fps
Color space                              : YUV
Chroma subsampling                       : 4:2:0
Bit depth                                : 8 bits
Scan type                                : Progressive
Bits/(Pixel*Frame)                       : 0.511
Stream size                              : 18.2 GiB (88%)
Title                                    : The Expendables 2
Language                                 : English
Default                                  : Yes
Forced                                   : No

Audio #1
ID                                       : 2
Format                                   : DTS
Format/Info                              : Digital Theater Systems
Mode                                     : 16
Format settings, Endianness              : Big
Codec ID                                 : A_DTS
Duration                                 : 1h 42mn
Bit rate mode                            : Constant
Bit rate                                 : 1 509 Kbps
Channel(s)                               : 6 channels
Channel positions                        : Front: L C R, Side: L R, LFE
Sampling rate                            : 48.0 KHz
Bit depth                                : 16 bits
Compression mode                         : Lossy
Stream size                              : 1.08 GiB (5%)
Language                                 : German
Default                                  : Yes
Forced                                   : No

Audio #2
ID                                       : 3
Format                                   : DTS
Format/Info                              : Digital Theater Systems
Mode                                     : 16
Format settings, Endianness              : Big
Codec ID                                 : A_DTS
Duration                                 : 1h 42mn
Bit rate mode                            : Constant
Bit rate                                 : 1 509 Kbps
Channel(s)                               : 6 channels
Channel positions                        : Front: L C R, Side: L R, LFE
Sampling rate                            : 48.0 KHz
Bit depth                                : 16 bits
Compression mode                         : Lossy
Stream size                              : 1.08 GiB (5%)
Language                                 : English
Default                                  : No
Forced                                   : No

Text #1
ID                                       : 4
Format                                   : PGS
Muxing mode                              : zlib
Codec ID                                 : S_HDMV/PGS
Codec ID/Info                            : Picture based subtitle format used on BDs/HD-DVDs
Title                                    : German Forced
Language                                 : German
Default                                  : Yes
Forced                                   : Yes

Text #2
ID                                       : 5
Format                                   : PGS
Muxing mode                              : zlib
Codec ID                                 : S_HDMV/PGS
Codec ID/Info                            : Picture based subtitle format used on BDs/HD-DVDs
Title                                    : HDMV PGS German
Language                                 : German
Default                                  : No
Forced                                   : No

Menu
00:00:00.000                             : en:00:00:00.000
00:09:25.940                             : en:00:09:25.940
00:19:44.141                             : en:00:19:44.141
00:28:19.448                             : en:00:28:19.448
00:35:47.062                             : en:00:35:47.062
00:43:51.254                             : en:00:43:51.254
00:52:44.495                             : en:00:52:44.495
00:59:52.756                             : en:00:59:52.756
01:08:01.953                             : en:01:08:01.953
01:16:29.335                             : en:01:16:29.335
01:24:23.934                             : en:01:24:23.934
01:32:40.346                             : en:01:32:40.346


----------------------------------------------------------------------------------------------
The.Expendables.3.Extended.2014.German.DL.TrueHD.1080p.BluRay.Remux
----------------------------------------------------------------------------------------------

General
Format                                   : Matroska
Format version                           : Version 4 / Version 2
File size                                : 30.6 GiB
Duration                                 : 2h 12mn
Overall bit rate mode                    : Variable
Overall bit rate                         : 33.2 Mbps
Movie name                               : The Expendables 3 (Extended)
Encoded date                             : UTC 2016-05-05 11:42:13
Writing application                      : mkvmerge v7.9.0 ('Birds') 64bit
Writing library                          : libebml v1.3.1 + libmatroska v1.4.2
_STATISTICS_WRITING_APP                  : mkvmerge v7.9.0 ('Birds') 64bit
_STATISTICS_WRITING_DATE_UTC             : 2016-05-05 11:42:13
_STATISTICS_TAGS                         : BPS DURATION NUMBER_OF_FRAMES NUMBER_OF_BYTES
DURATION                                 : 00:54:53.040000000
NUMBER_OF_FRAMES                         : 22
NUMBER_OF_BYTES                          : 105152

Video
ID                                       : 1
Format                                   : AVC
Format/Info                              : Advanced Video Codec
Format settings, CABAC                   : Yes
Format settings, ReFrames                : 4 frames
Codec ID                                 : V_MPEG4/ISO/AVC
Duration                                 : 2h 12mn
Bit rate mode                            : Variable
Maximum bit rate                         : 29.0 Mbps
Width                                    : 1 920 pixels
Height                                   : 1 080 pixels
Display aspect ratio                     : 16:9
Frame rate mode                          : Constant
Frame rate                               : 23.976 fps
Color space                              : YUV
Chroma subsampling                       : 4:2:0
Bit depth                                : 8 bits
Scan type                                : Progressive
Title                                    : The Expendables 3 b(Extended)
Language                                 : English
Default                                  : Yes
Forced                                   : No

Audio #1
ID                                       : 2
Format                                   : TrueHD
Codec ID                                 : A_TRUEHD
Duration                                 : 2h 12mn
Bit rate mode                            : Variable
Maximum bit rate                         : 8 553 Kbps
Channel(s)                               : 8 channels
Channel positions                        : Front: L C R, Side: L R, Back: L R, LFE
Sampling rate                            : 48.0 KHz
Compression mode                         : Lossless
Language                                 : German
Default                                  : No
Forced                                   : No

Audio #2
ID                                       : 3
Format                                   : AC-3
Format/Info                              : Audio Coding 3
Mode extension                           : CM (complete main)
Format settings, Endianness              : Big
Codec ID                                 : A_AC3
Duration                                 : 2h 12mn
Bit rate mode                            : Constant
Bit rate                                 : 448 Kbps
Channel(s)                               : 6 channels
Channel positions                        : Front: L C R, Side: L R, LFE
Sampling rate                            : 48.0 KHz
Compression mode                         : Lossy
Stream size                              : 423 MiB (1%)
Language                                 : German
Default                                  : Yes
Forced                                   : No

Audio #3
ID                                       : 4
Format                                   : TrueHD
Codec ID                                 : A_TRUEHD
Duration                                 : 2h 12mn
Bit rate mode                            : Variable
Maximum bit rate                         : 8 229 Kbps
Channel(s)                               : 8 channels
Channel positions                        : Front: L C R, Side: L R, Back: L R, LFE
Sampling rate                            : 48.0 KHz
Compression mode                         : Lossless
Language                                 : English
Default                                  : No
Forced                                   : No

Audio #4
ID                                       : 5
Format                                   : AC-3
Format/Info                              : Audio Coding 3
Mode extension                           : CM (complete main)
Format settings, Endianness              : Big
Codec ID                                 : A_AC3
Duration                                 : 2h 12mn
Bit rate mode                            : Constant
Bit rate                                 : 640 Kbps
Channel(s)                               : 6 channels
Channel positions                        : Front: L C R, Side: L R, LFE
Sampling rate                            : 48.0 KHz
Compression mode                         : Lossy
Stream size                              : 605 MiB (2%)
Default                                  : No
Forced                                   : No

Text #1
ID                                       : 6
Format                                   : PGS
Muxing mode                              : zlib
Codec ID                                 : S_HDMV/PGS
Codec ID/Info                            : Picture based subtitle format used on BDs/HD-DVDs
Title                                    : HDMV PGS German
Language                                 : German
Default                                  : No
Forced                                   : No

Text #2
ID                                       : 7
Format                                   : PGS
Muxing mode                              : zlib
Codec ID                                 : S_HDMV/PGS
Codec ID/Info                            : Picture based subtitle format used on BDs/HD-DVDs
Title                                    : HDMV PGS German
Language                                 : German
Default                                  : No
Forced                                   : No

Text #3
ID                                       : 8
Format                                   : PGS
Muxing mode                              : zlib
Codec ID                                 : S_HDMV/PGS
Codec ID/Info                            : Picture based subtitle format used on BDs/HD-DVDs
Title                                    : Forced German
Language                                 : German
Default                                  : Yes
Forced                                   : No

Text #4
ID                                       : 9
Format                                   : PGS
Muxing mode                              : zlib
Codec ID                                 : S_HDMV/PGS
Codec ID/Info                            : Picture based subtitle format used on BDs/HD-DVDs
Title                                    : Forced English
Language                                 : English
Default                                  : No
Forced                                   : No

Menu
00:00:00.000                             : de:Kapitel (01)
00:11:00.000                             : de:Kapitel (02)
00:22:00.000                             : de:Kapitel (03)
00:33:00.000                             : de:Kapitel (04)
00:44:00.000                             : de:Kapitel (05)
00:55:00.000                             : de:Kapitel (06)
01:05:00.000                             : de:Kapitel (07)
01:16:00.000                             : de:Kapitel (08)
01:27:00.000                             : de:Kapitel (09)
01:38:00.000                             : de:Kapitel (10)
01:49:00.000                             : de:Kapitel (11)
02:00:52.000                             : de:Kapitel (12)
Beschreibung:
The.Expendables.Trilogie.2010-2014.German.DTS-TrueHD.DL.1080p.BluRay.x264-REMUX
The Expendables (2010) Hart, härter, unmöglich! Es gibt Aufträge, an die wagen sich nur die mutigsten Söldner der Welt. Und es gibt Missionen, die nur den Lebensmüden vorbehalten sind – den Expendables. Dabei handelt es sich um eine Einheit, bei der niemand damit rechnet, dass sie lebend aus ihrem Einsatz zurückkehrt. Auch als dem südamerikanischen Diktator Gaza das Handwerk gelegt werden soll, schickt die zwielichtige Organisation „Church“ die abgebrühte Truppe zum Inselstaat Vilena, um dort angeblich die Ordnung wieder herzustellen – ein schier aussichtsloses Unterfangen, bei dem der Tod der Soldaten nicht nur in Kauf genommen wird, sondern sogar gewünscht ist. Allerdings wurde diesmal die Rechnung ohne Barney Ross (Sylvester Stallone) gemacht. Der Profisöldner schart ein Team von Kämpfern um sich, deren Professionalität nur noch von ihrer Todesverachtung übertroffen wird: Einen auf Messer spezialisierten SAS-Kämpfer, einen asiatischen Kampfsport-Profi, einen schießwütigen Giganten und einen knallharten Scharfschützen. Damit sind The Expendables gerüstet, um es mit einer ganzen Armee aufzunehmen. The Expendables 2 (2012) In The Expendables 2 übernimmt diese Gruppe der Tollkühnen einen scheinbar einfachen Job, den ihnen Mr. Church (Bruce Willis nun in einer Rolle, die über den Cameo des ersten Teiles hinausreicht) zuschustert. Der Einsatz endet allerdings desaströs, als the Expendables auf einen feindlichen Söldnertrupp unter Anführung des fiesen Jean Vilain (Jean-Claude Van Damme) stoßen. Um Vergeltung für einen ihrer verstorbenen Brüder zu suchen und Rache zu üben an Vilain, begeben sich die Expendables in Feindesland. Und eines ist sicher: Es wird kein Spaziergang. The Expendables 3 (2014) Barney Ross (Sylvester Stallone), Lee Christmas (Jason Statham) und das restliche Team der Söldnertruppe The Expendables müssen sich im dritten Teil der Actionfilm-Reihe mit dem brutalen Waffenhändler Conrad Stonebanks (Mel Gibson) auseinandersetzen, der die Expendables einst gemeinsam mit Barney gründete und dann die Seiten wechselte. Stonebanks und seine Mannen haben sich mittlerweile in einem verfallenen osteuropäischen Hotelkomplex verschanzt. Für die dritte Expendables-Mission muss Barney nun ein neues Team zusammenstellen, um Stonebanks das Handwerk zu legen. Und natürlich hat Barney noch eine private Rechnung mit Stonebanks zu begleichen.
Direct Download Links | DDL-Links

Ähnliche Releases der Kategorie