Fack.ju.Goehte.2.2015.German.DVDRiP.x264-iND

18. April 2016 von
Fack.ju.Goehte.2.2015.German.DVDRiP.x264-iND Warez-World
Aufrufe: 131 Hits
Vote 4 Us
Release:
Fack ju Göhte 2 DVD-RIP
Genre:
Comedy
Laufzeit:
116 Min.
Größe:
1454 MB
Passwort:
Warez-World.org
Sprachen:
Video Codec:
MPEG-4 H.264 / AVC
Audio Stream:
Dolby Digital 5.1
Bewertung:
Video Vorschau:
Online Stream:
Info:
Zeige NFOVerberge NFO
General
Format                         : MPEG-4
Format profile                 : Base Media / Version 2
Codec ID                       : mp42
File size                      : 1.42 GiB
Duration                       : 1h 50mn
Overall bit rate mode          : Variable
Overall bit rate               : 1 835 Kbps
Movie name                     : DVDVOLUME.Title20
Album                          : DVDVOLUME
Encoded date                   : UTC 2016-02-21 09:51:34
Tagged date                    : UTC 2016-02-21 09:59:58
Writing application            : DVDFab 9.2.1.8
covr                           : Unknown kind of value!

Video
ID                             : 1
Format                         : AVC
Format/Info                    : Advanced Video Codec
Format profile                 : Main@L3
Format settings, CABAC         : Yes
Format settings, ReFrames      : 2 frames
Format settings, GOP           : M=1, N=24
Codec ID                       : avc1
Codec ID/Info                  : Advanced Video Coding
Duration                       : 1h 50mn
Source duration                : 1h 50mn
Bit rate mode                  : Variable
Bit rate                       : 1 380 Kbps
Maximum bit rate               : 2 025 Kbps
Width                          : 720 pixels
Height                         : 300 pixels
Display aspect ratio           : 2.40:1
Frame rate mode                : Constant
Frame rate                     : 25.000 fps
Color space                    : YUV
Chroma subsampling             : 4:2:0
Bit depth                      : 8 bits
Scan type                      : Progressive
Bits/(Pixel*Frame)             : 0.256
Stream size                    : 1.07 GiB (75%)
Source stream size             : 1.07 GiB (75%)
Encoded date                   : UTC 2016-02-21 09:51:34
Tagged date                    : UTC 2016-02-21 09:59:58
Color primaries                : BT.601 NTSC
Transfer characteristics       : BT.709
Matrix coefficients            : BT.601

Audio
ID                             : 2
Format                         : AAC
Format/Info                    : Advanced Audio Codec
Format profile                 : LC
Codec ID                       : 40
Duration                       : 1h 50mn
Bit rate mode                  : Variable
Bit rate                       : 452 Kbps
Channel(s)                     : 6 channels
Channel positions              : Front: L C R, Side: L R, LFE
Sampling rate                  : 48.0 KHz
Compression mode               : Lossy
Stream size                    : 355 MiB (24%)
Title                          : German (aac 5.1)
Language                       : German
Encoded date                   : UTC 2016-02-21 09:51:34
Tagged date                    : UTC 2016-02-21 09:59:58

Text #1
ID                             : 3
Format                         : mp4s
Codec ID                       : E0
Duration                       : 1h 50mn
Bit rate mode                  : Variable
Bit rate                       : 3 988 bps
Maximum bit rate               : 4 273 Mbps
Stream size                    : 3.15 MiB (0%)
Language                       : German
Encoded date                   : UTC 2016-02-21 09:51:34
Tagged date                    : UTC 2016-02-21 09:59:55

Text #2
ID                             : 4
Format                         : mp4s
Codec ID                       : E0
Duration                       : 1h 45mn
Bit rate mode                  : Variable
Bit rate                       : 60 bps
Maximum bit rate               : 3 462 Mbps
Stream size                    : 46.0 KiB (0%)
Language                       : German
Encoded date                   : UTC 2016-02-21 09:51:34
Tagged date                    : UTC 2016-02-21 09:59:35

Menu
ID                             : 5
Codec ID                       : text
Duration                       : 1h 50mn
Encoded date                   : UTC 2016-02-21 09:51:34
Tagged date                    : UTC 2016-02-21 09:59:58
Source duration                : 6647001
Source frame count             : 17
Source stream size             : 399
Frame count                    : 17
Stream size                    : 399
Bit rate mode                  : VBR
Beschreibung:
Fack.ju.Goehte.2.2015.German.DVDRiP.x264-iND
Auf Klassenfahrt in Asien soll Lehrer Müller von der Göthe-Gesamtschule der versnobten Konkurrenz vom Schiller-Gymnasium die thailaendische Partnerschule abspenstig machen. Seine Direktorin erhofft sich von dieser Mission gute PR und mehr Budget, Müller dagegen die Rückführung der ihm vom Ex-Komplizen überlassenen Beute, die, in einem Kuscheltier versteckt, in Thailand gelandet ist. Von der Betreuung seiner fourderbedürftigen Schüler ist Müller schwer genervt, bis ihn deren Solidaritaet und gutes Herz umdenken lassen. Wie schon in "Türkisch für Anfaenger" zieht es Autor-Regisseur Bora Dagtekin für die Fortsetzung seines Millionenhits an einen exotischen Schauplatz. Auch dort sorgen Situationskomik und aus geografischen, biologischen und sprachlichen Fehlzündungen gespeiste Kultsprüche für einen Gute-Laune-Mix, der trotz Leerlauf und Blindgaengern das junge Zielpublikum wieder millionenfach zum Liken und Lachen bringen wird.
Direct Download Links | DDL-Links

Ähnliche Releases der Kategorie