Fantastic.Four.Duologie.German.DTS-HD.DL.1080p.BluRay.AVC.REMUX-HDS

26. Juni 2016 von
Fantastic.Four.Duologie.German.DTS-HD.DL.1080p.BluRay.AVC.REMUX-HDS Warez-World
Aufrufe: 38 Hits
Vote 4 Us
Release:
Fantastic Four BD
Genre:
Action
Laufzeit:
196 Min.
Größe:
30788 MB
Passwort:
Warez-World.org
Sprachen:
Video Codec:
MPEG-4 H.264 / AVC
Audio Stream:
DTS 5.1
Bewertung:
Video Vorschau:
Online Stream:
Info:
Zeige NFOVerberge NFO
Fantastic Four 

Format : Matroska
Format version : Version 2
File size : 15.5 GiB
Duration : 1h 45mn
Overall bit rate mode : Variable
Overall bit rate : 20.9 Mbps
Encoded date : UTC 2011-01-07 22:15:35
Writing application : mkvmerge v3.3.0 ('Language') gebaut am Mar 24 2010 14:59:24
Writing library : libebml v0.8.0 + libmatroska v0.9.0

Video
ID : 1
Format : MPEG Video
Format version : Version 2
Format profile : Main@High
Format settings, BVOP : No
Format settings, Matrix : Default
Codec ID : V_MPEG2
Codec ID/Info : MPEG 1 or 2 Video
Duration : 1h 45mn
Bit rate mode : Variable
Bit rate : 16.4 Mbps
Maximum bit rate : 24.0 Mbps
Width : 1 920 pixels
Height : 1 080 pixels
Display aspect ratio : 16:9
Frame rate mode : Constant
Frame rate : 23.976 fps
Standard : NTSC
Color space : YUV
Chroma subsampling : 4:2:0
Bit depth : 8 bits
Scan type : Progressive
Compression mode : Lossy
Bits/(Pixel*Frame) : 0.331
Time code of first frame : 00:00:00:00
Time code source : Group of pictures header
Stream size : 12.1 GiB (78%)
Default : Yes
Forced : No
Color primaries : BT.709
Transfer characteristics : BT.709
Matrix coefficients : BT.709

Audio #1
ID : 2
Format : DTS
Format/Info : Digital Theater Systems
Format profile : HRA / Core
Mode : 16
Format settings, Endianness : Big
Codec ID : A_DTS
Duration : 1h 45mn
Bit rate mode : Constant
Bit rate : 2 046 Kbps / 1 509 Kbps
Channel(s) : 6 channels
Channel positions : Front: L C R, Side: L R, LFE
Sampling rate : 48.0 KHz
Bit depth : 16 bits
Compression mode : Lossy
Stream size : 1.51 GiB (10%)
Language : German
Default : Yes
Forced : No

Audio #2
ID : 3
Format : DTS
Format/Info : Digital Theater Systems
Format profile : HRA / Core
Mode : 16
Format settings, Endianness : Big
Codec ID : A_DTS
Duration : 1h 45mn
Bit rate mode : Constant
Bit rate : 2 046 Kbps / 1 509 Kbps
Channel(s) : 6 channels
Channel positions : Front: L C R, Side: L R, LFE
Sampling rate : 48.0 KHz
Bit depth : 16 bits
Compression mode : Lossy
Stream size : 1.51 GiB (10%)
Language : English
Default : No
Forced : No


Fantastic Four 2
Format : Matroska
Format version : Version 2
File size : 14.6 GiB
Duration : 1h 31mn
Overall bit rate mode : Variable
Overall bit rate : 22.8 Mbps
Encoded date : UTC 2011-01-07 20:22:29
Writing application : mkvmerge v3.3.0 ('Language') gebaut am Mar 24 2010 14:59:24
Writing library : libebml v0.8.0 + libmatroska v0.9.0

Video
ID : 1
Format : AVC
Format/Info : Advanced Video Codec
Format profile : High@L4.1
Format settings, CABAC : Yes
Format settings, ReFrames : 4 frames
Codec ID : V_MPEG4/ISO/AVC
Duration : 1h 31mn
Bit rate mode : Variable
Bit rate : 18.2 Mbps
Maximum bit rate : 31.0 Mbps
Width : 1 920 pixels
Height : 1 080 pixels
Display aspect ratio : 16:9
Frame rate mode : Constant
Frame rate : 23.976 fps
Standard : NTSC
Color space : YUV
Chroma subsampling : 4:2:0
Bit depth : 8 bits
Scan type : Progressive
Bits/(Pixel*Frame) : 0.366
Stream size : 11.7 GiB (80%)
Default : Yes
Forced : No
Color primaries : BT.709
Transfer characteristics : BT.709
Matrix coefficients : BT.709

Audio #1
ID : 2
Format : DTS
Format/Info : Digital Theater Systems
Format profile : HRA / Core
Mode : 16
Format settings, Endianness : Big
Codec ID : A_DTS
Duration : 1h 31mn
Bit rate mode : Constant
Bit rate : 2 046 Kbps / 1 509 Kbps
Channel(s) : 6 channels
Channel positions : Front: L C R, Side: L R, LFE
Sampling rate : 48.0 KHz
Bit depth : 16 bits
Compression mode : Lossy
Stream size : 1.31 GiB (9%)
Language : German
Default : Yes
Forced : No

Audio #2
ID : 3
Format : DTS
Format/Info : Digital Theater Systems
Format profile : HRA / Core
Mode : 16
Format settings, Endianness : Big
Codec ID : A_DTS
Duration : 1h 31mn
Bit rate mode : Constant
Bit rate : 2 046 Kbps / 1 509 Kbps
Channel(s) : 6 channels
Channel positions : Front: L C R, Side: L R, LFE
Sampling rate : 48.0 KHz
Bit depth : 16 bits
Compression mode : Lossy
Stream size : 1.31 GiB (9%)
Language : English
Default : No
Forced : No
Beschreibung:
Fantastic.Four.Duologie.German.DTS-HD.DL.1080p.BluRay.AVC.REMUX-HDS
Fantastic Four Reed Richards (Ioan Gruffudd), seine Freundin Susan Storm (Jessica Alba), ihr Bruder Johnny Storm (Chris Evans), Ben Grimm (Michael Chiklis) und Victor von Doom (Julian McMahon) sind zu einer wissenschaftlichen Expedition in den Weltraum geflogen. Hier ereignen sich mysteriöse Dinge. Die Gruppe gerät in eine Ansammlung kosmischer Stahlen und kann nur knapp dem Tod entkommen. Zurück auf der Erde finden alle heraus, dass sie neue Kräfte entwickelt haben. Nur um Victor von Doom ist es still. Reed Richards kann sich gummiartig extrem in die Länge ziehen, Susan Storm kann sich unsichtbar machen und ein Kraftfeld erzeugen, welches sie vor äußeren Einflüssen schützt, Johnny Storm kann sich selbst entzünden sowie Feuer kontrollieren und Ben Grimm ist zu eine Art lebendigem Stein mit übermenschlicher Kraft geworden. Die vier entschließen sich, fortan unter dem Namen Fantastic Four für das Gute in der Welt einzustehen. Kurze Zeit später zeigt sich, dass auch Victor von Doom von den Strahlen betroffen ist. Er kann elektrische Energie absorbieren und manipulieren. Außerdem verwandelt er sich äußerlich zunehmend in eine metallische Substanz. Doom, sich selbst Dr. Doom nennend, ist dem Guten leider nicht sonderlich zugetan. Er will Macht. Und er glaubt, durch die Fantastic Four könne er sie erlangen. Fantastic Four: Rise of The Silver Surfer Überall auf der Welt erregen mysteriöse geographische Ereignisse die Aufmerksamkeit der Menschen: Riesige Krater von einem Kilometer Durchmesser perforieren wie gestanzt den Erdmantel. Überall sieht man kurz zuvor eine silberne Erscheinung in der Atmosphäre. Die Phänomene könnten kein ungünstigeres Timing haben, steht doch die lang geplante Hochzeit von Dr. Reed Richards aka Mister Fantastic (Ioan Gruffudd) und Sue Storm aka Invisible Woman (Jessica Alba) an. Als auch New York City heimgesucht wird, macht Johnny Storm (Chris Evans), die menschliche Fackel, unliebsame Bekanntschaft mit der silbernen Präsenz. Es handelt sich um den Silver Surfer (im Original gesprochen von Laurence Fishburne), ein Humanoid mit einer Oberfläche wie aus Quecksilber und eine Art Surfbrett als Fortbewegungsmittel nutzend, das ihn schneller als das Licht reisen lässt. Wird der Silver Surfer zunächst noch als eine Bedrohung wahrgenommen, die u. a. Doctor Doom (Julian McMahon) kraft Molekülstruktur verändernder Fähigkeiten aus seinem Gefängnis befreit, ist er doch nur Vorbote einer noch größeren Gefahr: Als so genannter Herold kundschaftet Norrin Radd, wie der Silver Surfer ursprünglich heißt, fremde Welten für seinen Meister Galaktus, den Weltenverschlinger, aus. Sein Kommen steht kurz bevor – und er ist hungrig, sehr hungrig!
Direct Download Links | DDL-Links

Ähnliche Releases der Kategorie