Fast.Convoy.2016.German.AC3.HDRiP.XViD-HQX

7. Juli 2016 von
Fast.Convoy.2016.German.AC3.HDRiP.XViD-HQX Warez-World
Aufrufe: 55 Hits
Vote 4 Us
Release:
Fast Convoy - Tödlicher Transport BD-RIP
Genre:
Thriller
Laufzeit:
103 Min.
Größe:
1536 MB
Passwort:
Warez-World.org
Sprachen:
Video Codec:
MPEG-4 DivX / Xvid
Audio Stream:
Dolby Digital 5.1
Bewertung:
Video Vorschau:
Online Stream:
Info:
Zeige NFOVerberge NFO
General
Format                                   : AVI
Format/Info                              : Audio Video Interleave
File size                                : 1.50 GiB
Duration                                 : 1h 42mn
Overall bit rate                         : 2 090 Kbps
Writing application                      : VirtualDubMod 1.5.10.3 | www.virtualdub-fr.org || (build 2550/release)
Writing library                          : VirtualDubMod build 2550/release

Video
ID                                       : 0
Format                                   : MPEG-4 Visual
Format settings, BVOP                    : 2
Format settings, QPel                    : No
Format settings, GMC                     : No warppoints
Format settings, Matrix                  : Default (H.263)
Codec ID                                 : XVID
Codec ID/Hint                            : XviD
Duration                                 : 1h 42mn
Bit rate                                 : 1 632 Kbps
Width                                    : 720 pixels
Height                                   : 304 pixels
Display aspect ratio                     : 2.35:1
Frame rate                               : 24.000 fps
Color space                              : YUV
Chroma subsampling                       : 4:2:0
Bit depth                                : 8 bits
Scan type                                : Progressive
Compression mode                         : Lossy
Bits/(Pixel*Frame)                       : 0.311
Stream size                              : 1.17 GiB (78%)
Writing library                          : XviD 1.2.1 (UTC 2008-12-04)

Audio
ID                                       : 1
Format                                   : AC-3
Format/Info                              : Audio Coding 3
Mode extension                           : CM (complete main)
Format settings, Endianness              : Big
Codec ID                                 : 2000
Duration                                 : 1h 42mn
Bit rate mode                            : Constant
Bit rate                                 : 448 Kbps
Channel(s)                               : 6 channels
Channel positions                        : Front: L C R, Side: L R, LFE
Sampling rate                            : 48.0 KHz
Compression mode                         : Lossy
Stream size                              : 329 MiB (21%)
Alignment                                : Split accross interleaves
Interleave, duration                     : 42 ms (1.00 video frame)
Interleave, preload duration             : 500 ms

Beschreibung:
Fast.Convoy.2016.German.AC3.HDRiP.XViD-HQX
Eine Bande von Drogenkurieren will eine große Ladung Kokain mit schnellen Autos von Spanien nach Frankreich liefern. Doch schon an der Grenze geraten sie in eine Polizeikontrolle und können nur mit knapper Not entkommen. Auf der Flucht vor den Behörden und einem rivalisierenden Team, droht die Unternehmung zu scheitern. Nun muss Anführer Alex selbst eingreifen, um die Fracht und seine Männer zu retten.
Direct Download Links | DDL-Links

Ähnliche Releases der Kategorie