The.First.Avenger.Civil.War.2016.TS.LD.GERMAN.x264-CAPTAiN

3. Mai 2016 von
The.First.Avenger.Civil.War.2016.TS.LD.GERMAN.x264-CAPTAiN Warez-World
Aufrufe: 99 Hits
Vote 4 Us
Release:
The First Avenger: Civil War TS
Genre:
Action
Laufzeit:
138 Min.
Größe:
943 MB
Passwort:
Warez-World.org
Sprachen:
Video Codec:
MPEG-4 H.264 / AVC
Audio Stream:
Dolby Digital 2.0 (LineDubbed)
Bewertung:
Video Vorschau:
Online Stream:
Info:
Zeige NFOVerberge NFO
The.First.Avenger.Civil.War.2016.TS.LD.GERMAN.x264-CAPTAiN

General

Format                      : Matroska
File size                   : 933 MiB
Duration                    : 2h 17mn
Overall bit rate            : 945 Kbps
DURATION                    : 02:17:59.616000000

Video

Format                      : AVC
Duration                    : 2h 17mn
Bit rate                    : 734 Kbps
Width                       : 640 pixels
Height                      : 272 pixels
Frame rate                  : 29.970 fps
Stream size                 : 725 MiB (78%)

Audio

Format                      : AC-3
Bit rate mode               : Constant
Bit rate                    : 192 Kbps
Channel(s)                  : 2 channels
Sampling rate               : 48.0 KHz
Stream size                 : 190 MiB (20%)

Notes: Leider kein deutscher Ton f r die AC Szene

Besten Dank an cybersmoke fuer die sehr gute Line!
Beschreibung:
The.First.Avenger.Civil.War.2016.TS.LD.GERMAN.x264-CAPTAiN
Nach all der Zerstörung, die mit der Abwehr globaler Bedrohungen durch die Avengers einhergegangen ist, ist die US-Regierung der Meinung, dass es eine stärkere Kontrolle der Superhelden braucht. Man beschließt daher eine Instanz zu schaffen, die dafür Sorge tragen soll, dass die Helden nur noch auf Anweisung aktiv werden und Bericht erstatten. „Iron Man“ Tony Stark (Robert Downey Jr.) unterstützt den Plan. Er hat nach der gescheiterten Schöpfung des feindseligen Super-Roboters Ultron aus erster Hand erfahren müssen, was passieren kann, wenn man auf eigene Faust handelt. Doch Steve Rogers alias Captain America (Chris Evans) weiß nur zu gut, wie eine solch mächtige Organisation missbraucht werden kann. Er stellt sich gegen das Vorhaben, sodass es zur Auseinandersetzung mit seinem Kollegen kommt.
Direct Download Links | DDL-Links

Ähnliche Releases der Kategorie