The.First.Avenger.Civil.War.2016.TS.LD.GERMAN.x264-CAPTAiN

3. Mai 2016 von
The.First.Avenger.Civil.War.2016.TS.LD.GERMAN.x264-CAPTAiN Warez-World
Aufrufe: 44 Hits
Vote 4 Us
Release:
The First Avenger Civil War TS
Genre:
Action
Laufzeit:
138 Min.
Größe:
933 MB
Passwort:
Warez-World.org
Sprachen:
Video Codec:
MPEG-4 H.264 / AVC
Audio Stream:
Line
Bewertung:
Video Vorschau:
Online Stream:
Info:
Zeige NFOVerberge NFO
The.First.Avenger.Civil.War.2016.TS.LD.GERMAN.x264-CAPTAiN

General

Format                      : Matroska
File size                   : 933 MiB
Duration                    : 2h 17mn
Overall bit rate            : 945 Kbps
DURATION                    : 02:17:59.616000000

Video

Format                      : AVC
Duration                    : 2h 17mn
Bit rate                    : 734 Kbps
Width                       : 640 pixels
Height                      : 272 pixels
Frame rate                  : 29.970 fps
Stream size                 : 725 MiB (78%)

Audio

Format                      : AC-3
Bit rate mode               : Constant
Bit rate                    : 192 Kbps
Channel(s)                  : 2 channels
Sampling rate               : 48.0 KHz
Stream size                 : 190 MiB (20%)

Notes: Leider kein deutscher Ton f r die AC Szene

Besten Dank an cybersmoke fuer die sehr gute Line!
Beschreibung:
The.First.Avenger.Civil.War.2016.TS.LD.GERMAN.x264-CAPTAiN
Unter Führung von Captain Steve Rogers ist das neue Team der Avengers weiterhin für den Erhalt des Friedens im Einsatz, als sie in einen internationalen Vorfall verwickelt werden, der erhebliche Kollateralschäden verursacht. Daraufhin werden Forderungen nach einem neuen Führungsgremium lauter, das bestimmt, wann die Dienste der Avengers wirklich angefordert werden. Das aus dem politischen Druck entstehende Kräfteringen treibt das Team langsam auseinander - gerade als ein neuer, ruchloser Feind sich erhebt.
Direct Download Links | DDL-Links

Ähnliche Releases der Kategorie