Game.of.Thrones.S02.1080p.BluRay.AC3.DL.x264-HDC

2. Juli 2016 von
Game.of.Thrones.S02.1080p.BluRay.AC3.DL.x264-HDC Warez-World
Aufrufe: 113 Hits
Vote 4 Us
Release:
Game of Thrones Staffel 2 BD
Genre:
Fantasy
Größe:
57848 MB
Passwort:
Warez-World.org
Sprachen:
Video Codec:
MPEG-4 H.264 / AVC
Audio Stream:
DTS 5.1
Bewertung:
Video Vorschau:
Online Stream:
Info:
Zeige NFOVerberge NFO
General
Unique ID                                : 170147767488465472582507118365763797587 (0x8001449E1DD6FF2DA76BCEA7F7C58253)
Complete name                            : F:DownloadsGOTS21BRADX-HDCGame of Thrones S02 1080p BluRay AC3 DL x264 - HDCGame.of.Thrones.S02E01.1080p.BluRay.AC3.DL.x264-HDC.mkv
Format                                   : Matroska
Format version                           : Version 4 / Version 2
File size                                : 7.13 GiB
Duration                                 : 52mn 41s
Overall bit rate                         : 19.4 Mbps
Encoded date                             : UTC 2014-03-16 07:48:20
Writing application                      : mkvmerge v6.8.0 ('Theme for Great Cities') 32bit built on Mar  2 2014 21:27:07
Writing library                          : libebml v1.3.0 + libmatroska v1.4.1

Video
ID                                       : 1
Format                                   : AVC
Format/Info                              : Advanced Video Codec
Format profile                           : High@L4.1
Format settings, CABAC                   : Yes
Format settings, ReFrames                : 4 frames
Codec ID                                 : V_MPEG4/ISO/AVC
Duration                                 : 52mn 41s
Bit rate                                 : 18.0 Mbps
Width                                    : 1 920 pixels
Height                                   : 1 080 pixels
Display aspect ratio                     : 16:9
Frame rate mode                          : Constant
Frame rate                               : 23.976 fps
Color space                              : YUV
Chroma subsampling                       : 4:2:0
Bit depth                                : 8 bits
Scan type                                : Progressive
Bits/(Pixel*Frame)                       : 0.363
Stream size                              : 6.51 GiB (91%)
Title                                    : 18 Mbps AVC MPEG-4
Writing library                          : x264 core 135 r2345kMod f0c1c53
Encoding settings                        : cabac=1 / ref=4 / deblock=1:-5:0 / analyse=0x3:0x113 / me=umh / subme=10 / psy=1 / fade_compensate=0.00 / psy_rd=1.20:0.00 / mixed_ref=1 / me_range=32 / chroma_me=1 / trellis=2 / 8x8dct=1 / cqm=0 / deadzone=21,11 / fast_pskip=1 / chroma_qp_offset=-2 / threads=6 / lookahead_threads=1 / sliced_threads=0 / nr=0 / decimate=1 / interlaced=0 / bluray_compat=0 / constrained_intra=0 / bframes=5 / b_pyramid=2 / b_adapt=2 / b_bias=0 / direct=3 / weightb=1 / open_gop=0 / weightp=2 / keyint=250 / keyint_min=23 / scenecut=40 / intra_refresh=0 / rc_lookahead=120 / rc=2pass / mbtree=1 / bitrate=18044 / ratetol=1.0 / qcomp=0.80 / qpmin=0 / qpmax=69 / qpstep=4 / cplxblur=20.0 / qblur=0.5 / ip_ratio=1.40 / aq=1:1.00
Language                                 : English
Default                                  : Yes
Forced                                   : No

Audio #1
ID                                       : 2
Format                                   : AC-3
Format/Info                              : Audio Coding 3
Mode extension                           : CM (complete main)
Format settings, Endianness              : Big
Codec ID                                 : A_AC3
Duration                                 : 52mn 41s
Bit rate mode                            : Constant
Bit rate                                 : 640 Kbps
Channel(s)                               : 6 channels
Channel positions                        : Front: L C R, Side: L R, LFE
Sampling rate                            : 48.0 KHz
Bit depth                                : 16 bits
Compression mode                         : Lossy
Stream size                              : 241 MiB (3%)
Title                                    : 5.1 AC3 @ 640 kbps
Language                                 : German
Default                                  : Yes
Forced                                   : Yes

Audio #2
ID                                       : 3
Format                                   : AC-3
Format/Info                              : Audio Coding 3
Mode extension                           : CM (complete main)
Format settings, Endianness              : Big
Codec ID                                 : A_AC3
Duration                                 : 52mn 41s
Bit rate mode                            : Constant
Bit rate                                 : 640 Kbps
Channel(s)                               : 6 channels
Channel positions                        : Front: L C R, Side: L R, LFE
Sampling rate                            : 48.0 KHz
Bit depth                                : 16 bits
Compression mode                         : Lossy
Stream size                              : 241 MiB (3%)
Title                                    : 5.1 AC3 @ 640 kbps
Language                                 : English
Default                                  : No
Forced                                   : No

Text #1
ID                                       : 4
Format                                   : PGS
Muxing mode                              : zlib
Codec ID                                 : S_HDMV/PGS
Codec ID/Info                            : Picture based subtitle format used on BDs/HD-DVDs
Title                                    : FORCED (PGS)
Language                                 : German
Default                                  : Yes
Forced                                   : Yes

Text #2
ID                                       : 5
Format                                   : VobSub
Muxing mode                              : zlib
Codec ID                                 : S_VOBSUB
Codec ID/Info                            : Picture based subtitle format used on DVDs
Title                                    : FORCED (VOB)
Language                                 : German
Default                                  : No
Forced                                   : Yes

Text #3
ID                                       : 6
Format                                   : PGS
Muxing mode                              : zlib
Codec ID                                 : S_HDMV/PGS
Codec ID/Info                            : Picture based subtitle format used on BDs/HD-DVDs
Title                                    : PGS
Language                                 : German
Default                                  : No
Forced                                   : No

Text #4
ID                                       : 7
Format                                   : VobSub
Muxing mode                              : zlib
Codec ID                                 : S_VOBSUB
Codec ID/Info                            : Picture based subtitle format used on DVDs
Title                                    : VOB
Language                                 : German
Default                                  : No
Forced                                   : No

Text #5
ID                                       : 8
Format                                   : PGS
Muxing mode                              : zlib
Codec ID                                 : S_HDMV/PGS
Codec ID/Info                            : Picture based subtitle format used on BDs/HD-DVDs
Title                                    : FORCED (PGS)
Language                                 : English
Default                                  : No
Forced                                   : Yes

Text #6
ID                                       : 9
Format                                   : VobSub
Muxing mode                              : zlib
Codec ID                                 : S_VOBSUB
Codec ID/Info                            : Picture based subtitle format used on DVDs
Title                                    : FORCED (VOB)
Language                                 : English
Default                                  : No
Forced                                   : Yes

Text #7
ID                                       : 10
Format                                   : PGS
Muxing mode                              : zlib
Codec ID                                 : S_HDMV/PGS
Codec ID/Info                            : Picture based subtitle format used on BDs/HD-DVDs
Title                                    : PGS
Language                                 : English
Default                                  : No
Forced                                   : No

Text #8
ID                                       : 11
Format                                   : VobSub
Muxing mode                              : zlib
Codec ID                                 : S_VOBSUB
Codec ID/Info                            : Picture based subtitle format used on DVDs
Title                                    : VOB
Language                                 : English
Default                                  : No
Forced                                   : No

Menu
00:00:00.000                             : en:00:00:00.000
00:01:54.531                             : en:00:01:54.531
00:10:16.157                             : en:00:10:16.157
00:18:15.511                             : en:00:18:15.511
00:24:27.216                             : en:00:24:27.216
00:31:39.689                             : en:00:31:39.689
00:41:03.670                             : en:00:41:03.670
00:51:21.704                             : en:00:51:21.704
Beschreibung:
Game.of.Thrones.S02.1080p.BluRay.AC3.DL.x264-HDC
In der zweiten Staffel der epischen HBO®-Serie Game of Thrones erheben sämtliche Könige von Westeros Anspruch auf den Eisernen Thron. Als der Winter naht, sitzt der junge Joffrey auf dem Thron in Königsmund, ein grausamer Herrscher, beraten von seiner intriganten Mutter Cersei und seinem Onkel Tyrion, der zur Hand des Königs erhoben wurde. Aber den Lennisters wird die Macht von allen Seiten streitig gemacht, da zwei Baratheons die Krone beanspruchen und Robb Stark als König im Norden kämpft. Währenddessen erhebt sich ein neuer Anführer der Wildlinge im Norden jenseits der Mauer, der weitere Gefahr für Jon Snow und die Nachtwache darstellt. Daenerys Targaryen versucht derweil, ihre schwindende Macht im Osten mit Hilfe ihrer drei neugeborenen Drachen zurückzuerobern. Intrigen und Verhandlungen, Bündnisse und Befindlichkeiten: Auch die zweite Staffel ist ein wilder Ritt durch eine atemberaubende und unvergessliche Welt. Basierend auf den Weltbestsellern von George R.R. Martin ist Game of Thrones eine Geschichte von Doppelzüngigkeit und Verrat, Ehre und Recht, Eroberung und Sieg.
Direct Download Links | DDL-Links

Ähnliche Releases der Kategorie