Game.of.Thrones.S03.1080p.BluRay.AC3.DL.x264-HDC

8. Juli 2016 von
Game.of.Thrones.S03.1080p.BluRay.AC3.DL.x264-HDC Warez-World
Aufrufe: 71 Hits
Vote 4 Us
Release:
Game of Thrones Staffel 3 BD
Genre:
Fantasy
Größe:
60843 MB
Passwort:
Warez-World.org
Sprachen:
Video Codec:
MPEG-4 H.264 / AVC
Audio Stream:
DTS 5.1
Bewertung:
Video Vorschau:
Online Stream:
Info:
Zeige NFOVerberge NFO
General
Unique ID                                : 208101586749324608827106786275049797498 (0x9C8EE8619DB35B6FB58B9EF6AF46F77A)
Complete name                            : F:DownloadsGOTS031BADX-HDCGame.of.Thrones.S03E01.Valar.Dohaeris.1080p.BluRay.AC3.DL.x264-HDC.mkv
Format                                   : Matroska
Format version                           : Version 4 / Version 2
File size                                : 5.72 GiB
Duration                                 : 54mn 31s
Overall bit rate                         : 15.0 Mbps
Encoded date                             : UTC 2014-03-24 11:00:03
Writing application                      : mkvmerge v6.8.0 ('Theme for Great Cities') 32bit built on Mar  2 2014 21:27:07
Writing library                          : libebml v1.3.0 + libmatroska v1.4.1

Video
ID                                       : 1
Format                                   : AVC
Format/Info                              : Advanced Video Codec
Format profile                           : High@L4.1
Format settings, CABAC                   : Yes
Format settings, ReFrames                : 4 frames
Codec ID                                 : V_MPEG4/ISO/AVC
Duration                                 : 54mn 31s
Bit rate                                 : 13.7 Mbps
Width                                    : 1 920 pixels
Height                                   : 1 080 pixels
Display aspect ratio                     : 16:9
Frame rate mode                          : Constant
Frame rate                               : 23.976 fps
Color space                              : YUV
Chroma subsampling                       : 4:2:0
Bit depth                                : 8 bits
Scan type                                : Progressive
Bits/(Pixel*Frame)                       : 0.276
Stream size                              : 5.12 GiB (89%)
Title                                    : 14 Mbps AVC MPEG-4
Writing library                          : x264 core 135 r2345kMod f0c1c53
Encoding settings                        : cabac=1 / ref=4 / deblock=1:-5:0 / analyse=0x3:0x113 / me=umh / subme=10 / psy=1 / fade_compensate=0.00 / psy_rd=1.10:0.00 / mixed_ref=1 / me_range=32 / chroma_me=1 / trellis=2 / 8x8dct=1 / cqm=0 / deadzone=21,11 / fast_pskip=1 / chroma_qp_offset=-2 / threads=6 / lookahead_threads=1 / sliced_threads=0 / nr=0 / decimate=1 / interlaced=0 / bluray_compat=0 / constrained_intra=0 / bframes=5 / b_pyramid=2 / b_adapt=2 / b_bias=0 / direct=3 / weightb=1 / open_gop=0 / weightp=2 / keyint=250 / keyint_min=23 / scenecut=40 / intra_refresh=0 / rc_lookahead=120 / rc=2pass / mbtree=1 / bitrate=13711 / ratetol=1.0 / qcomp=0.80 / qpmin=0 / qpmax=69 / qpstep=4 / cplxblur=20.0 / qblur=0.5 / ip_ratio=1.40 / aq=1:1.10
Language                                 : English
Default                                  : Yes
Forced                                   : No

Audio #1
ID                                       : 2
Format                                   : AC-3
Format/Info                              : Audio Coding 3
Mode extension                           : CM (complete main)
Format settings, Endianness              : Big
Codec ID                                 : A_AC3
Duration                                 : 54mn 31s
Bit rate mode                            : Constant
Bit rate                                 : 640 Kbps
Channel(s)                               : 6 channels
Channel positions                        : Front: L C R, Side: L R, LFE
Sampling rate                            : 48.0 KHz
Bit depth                                : 16 bits
Compression mode                         : Lossy
Stream size                              : 250 MiB (4%)
Title                                    : 5.1 AC3 @ 640 kbps
Language                                 : German
Default                                  : Yes
Forced                                   : Yes

Audio #2
ID                                       : 3
Format                                   : AC-3
Format/Info                              : Audio Coding 3
Mode extension                           : CM (complete main)
Format settings, Endianness              : Big
Codec ID                                 : A_AC3
Duration                                 : 54mn 31s
Bit rate mode                            : Constant
Bit rate                                 : 640 Kbps
Channel(s)                               : 6 channels
Channel positions                        : Front: L C R, Side: L R, LFE
Sampling rate                            : 48.0 KHz
Bit depth                                : 16 bits
Compression mode                         : Lossy
Stream size                              : 250 MiB (4%)
Title                                    : 5.1 AC3 @ 640 kbps
Language                                 : English
Default                                  : No
Forced                                   : No

Text #1
ID                                       : 4
Format                                   : PGS
Muxing mode                              : zlib
Codec ID                                 : S_HDMV/PGS
Codec ID/Info                            : Picture based subtitle format used on BDs/HD-DVDs
Title                                    : FORCED (PGS)
Language                                 : German
Default                                  : Yes
Forced                                   : Yes

Text #2
ID                                       : 5
Format                                   : VobSub
Muxing mode                              : zlib
Codec ID                                 : S_VOBSUB
Codec ID/Info                            : Picture based subtitle format used on DVDs
Title                                    : FORCED (VOB)
Language                                 : German
Default                                  : No
Forced                                   : Yes

Text #3
ID                                       : 6
Format                                   : PGS
Muxing mode                              : zlib
Codec ID                                 : S_HDMV/PGS
Codec ID/Info                            : Picture based subtitle format used on BDs/HD-DVDs
Title                                    : PGS
Language                                 : German
Default                                  : No
Forced                                   : No

Text #4
ID                                       : 7
Format                                   : VobSub
Muxing mode                              : zlib
Codec ID                                 : S_VOBSUB
Codec ID/Info                            : Picture based subtitle format used on DVDs
Title                                    : VOB
Language                                 : German
Default                                  : No
Forced                                   : No

Text #5
ID                                       : 8
Format                                   : PGS
Muxing mode                              : zlib
Codec ID                                 : S_HDMV/PGS
Codec ID/Info                            : Picture based subtitle format used on BDs/HD-DVDs
Title                                    : FORCED (PGS)
Language                                 : English
Default                                  : No
Forced                                   : Yes

Text #6
ID                                       : 9
Format                                   : VobSub
Muxing mode                              : zlib
Codec ID                                 : S_VOBSUB
Codec ID/Info                            : Picture based subtitle format used on DVDs
Title                                    : FORCED (VOB)
Language                                 : English
Default                                  : No
Forced                                   : Yes

Text #7
ID                                       : 10
Format                                   : PGS
Muxing mode                              : zlib
Codec ID                                 : S_HDMV/PGS
Codec ID/Info                            : Picture based subtitle format used on BDs/HD-DVDs
Title                                    : PGS
Language                                 : English
Default                                  : No
Forced                                   : No

Text #8
ID                                       : 11
Format                                   : VobSub
Muxing mode                              : zlib
Codec ID                                 : S_VOBSUB
Codec ID/Info                            : Picture based subtitle format used on DVDs
Title                                    : VOB
Language                                 : English
Default                                  : No
Forced                                   : No

Menu
00:00:00.000                             : en:00:00:00.000
00:00:06.006                             : en:00:00:06.006
00:05:06.556                             : en:00:05:06.556
00:12:28.247                             : en:00:12:28.247
00:18:51.547                             : en:00:18:51.547
00:26:45.854                             : en:00:26:45.854
00:35:24.372                             : en:00:35:24.372
00:43:18.304                             : en:00:43:18.304
00:53:11.730                             : en:00:53:11.730
Beschreibung:
Game.of.Thrones.S03.1080p.BluRay.AC3.DL.x264-HDC
In der dritten Staffel der Hitserie von HBO© können sich die Lennisters gerade noch auf dem Thron halten, nachdem Stannis Baratheon ihnen in einer gewaltigen Seeschlacht große Verluste zugefügt hatte, während Umbrüche im Norden drohen, das Gleichgewicht der Macht zu zerstören. Robb Stark, dem König des Nordens, widerfährt großes Unheil, als er gegen die Lennisters zu Felde zieht, während hinter der Mauer Manke Rayder und seine riesige Armee von Wildlingen ihren unaufhaltsamen Marsch gen Süden fortsetzen. Jenseits der Meerenge gelingt es Daenerys Targaryen – wiedervereint mit ihren drei rasch wachsenden Drachen -, eine Armee zusammenzustellen um mit dieser von Essos aufzubrechen und den Eisernen Thron für sich zu beanspruchen. In der dritten Staffel der auf den Bestsellern von George R.R. Martin basierenden Originalserie kämpfen die verfeindeten Familien von Westeros weiter erbittert gegeneinander, wenn Bündnisse auf die Probe gestellt werden, Treue getestet wird und das Schicksal grausam zuschlägt.
Direct Download Links | DDL-Links

Ähnliche Releases der Kategorie