Game.of.Thrones.S03.COMPLETE.GERMAN.AC3D.5.1.DL.1080p.BluRay.x264-PRETAiL

3. Juli 2016 von
Game.of.Thrones.S03.COMPLETE.GERMAN.AC3D.5.1.DL.1080p.BluRay.x264-PRETAiL Warez-World
Aufrufe: 105 Hits
Vote 4 Us
Release:
Game of Thrones Staffel 3 BD
Genre:
Fantasy
Größe:
46026 MB
Passwort:
Warez-World.org
Sprachen:
Video Codec:
MPEG-4 H.264 / AVC
Audio Stream:
DTS 5.1
Bewertung:
Video Vorschau:
Online Stream:
Info:
Zeige NFOVerberge NFO
General
Unique ID                                : 202297833796378706605599094000836137980 (0x98312544AF8F1F60BAB307C9B97BD3FC)
Complete name                            : F:DownloadsGame.of.Thrones.S03E01.GER.A3D.5.1.DL.108p.BRay.x264-PRETAiL.mkv
Format                                   : Matroska
Format version                           : Version 2
File size                                : 4.52 GiB
Duration                                 : 54mn 31s
Overall bit rate                         : 11.9 Mbps
Movie name                               : PRETAiL Productions
Encoded date                             : UTC 2014-03-01 18:22:19
Writing application                      : mkvmerge v3.4.0 ('Rapunzel') gebaut am May 15 2010 09:38:20
Writing library                          : libebml v0.8.0 + libmatroska v0.9.0
Attachements                             : BELL.TTF

Video
ID                                       : 1
Format                                   : AVC
Format/Info                              : Advanced Video Codec
Format profile                           : High@L4
Format settings, CABAC                   : Yes
Format settings, ReFrames                : 4 frames
Codec ID                                 : V_MPEG4/ISO/AVC
Duration                                 : 54mn 31s
Bit rate                                 : 9 962 Kbps
Width                                    : 1 920 pixels
Height                                   : 1 080 pixels
Display aspect ratio                     : 16:9
Frame rate mode                          : Constant
Frame rate                               : 23.976 fps
Color space                              : YUV
Chroma subsampling                       : 4:2:0
Bit depth                                : 8 bits
Scan type                                : Progressive
Bits/(Pixel*Frame)                       : 0.200
Stream size                              : 3.71 GiB (82%)
Writing library                          : x264 core 140 r2377 1ca7bb9
Encoding settings                        : cabac=1 / ref=4 / deblock=1:0:0 / analyse=0x3:0x133 / me=umh / subme=7 / psy=1 / psy_rd=1.00:0.00 / mixed_ref=1 / me_range=16 / chroma_me=1 / trellis=1 / 8x8dct=1 / cqm=0 / deadzone=21,11 / fast_pskip=0 / chroma_qp_offset=-2 / threads=18 / lookahead_threads=3 / sliced_threads=0 / nr=0 / decimate=1 / interlaced=0 / bluray_compat=0 / constrained_intra=0 / bframes=3 / b_pyramid=2 / b_adapt=2 / b_bias=0 / direct=3 / weightb=1 / open_gop=0 / weightp=2 / keyint=250 / keyint_min=23 / scenecut=40 / intra_refresh=0 / rc_lookahead=50 / rc=2pass / mbtree=1 / bitrate=9962 / ratetol=1.0 / qcomp=0.60 / qpmin=0 / qpmax=69 / qpstep=4 / cplxblur=20.0 / qblur=0.5 / ip_ratio=1.40 / aq=1:1.00
Language                                 : English
Default                                  : No
Forced                                   : No

Audio #1
ID                                       : 2
Format                                   : AC-3
Format/Info                              : Audio Coding 3
Mode extension                           : CM (complete main)
Format settings, Endianness              : Big
Codec ID                                 : A_AC3
Duration                                 : 54mn 31s
Bit rate mode                            : Constant
Bit rate                                 : 384 Kbps
Channel(s)                               : 6 channels
Channel positions                        : Front: L C R, Side: L R, LFE
Sampling rate                            : 48.0 KHz
Bit depth                                : 16 bits
Compression mode                         : Lossy
Stream size                              : 150 MiB (3%)
Title                                    : AC3 5.1 by PRETAiL
Language                                 : German
Default                                  : Yes
Forced                                   : Yes

Audio #2
ID                                       : 3
Format                                   : DTS
Format/Info                              : Digital Theater Systems
Mode                                     : 16
Format settings, Endianness              : Big
Codec ID                                 : A_DTS
Duration                                 : 54mn 31s
Bit rate mode                            : Constant
Bit rate                                 : 1 509 Kbps
Channel(s)                               : 6 channels
Channel positions                        : Front: L C R, Side: L R, LFE
Sampling rate                            : 48.0 KHz
Bit depth                                : 24 bits
Compression mode                         : Lossy
Delay relative to video                  : 11ms
Stream size                              : 589 MiB (13%)
Language                                 : English
Default                                  : No
Forced                                   : No

Text #1
ID                                       : 4
Format                                   : ASS
Codec ID                                 : S_TEXT/ASS
Codec ID/Info                            : Advanced Sub Station Alpha
Compression mode                         : Lossless
Title                                    : Forced
Language                                 : German
Default                                  : Yes
Forced                                   : Yes

Text #2
ID                                       : 5
Format                                   : UTF-8
Codec ID                                 : S_TEXT/UTF8
Codec ID/Info                            : UTF-8 Plain Text
Title                                    : Forced
Language                                 : English
Default                                  : No
Forced                                   : No

Menu
00:00:00.000                             : en:00:00:00.000
00:00:06.006                             : en:00:00:06.006
00:05:06.556                             : en:00:05:06.556
00:12:28.247                             : en:00:12:28.247
00:18:51.547                             : en:00:18:51.547
00:26:45.854                             : en:00:26:45.854
00:35:24.372                             : en:00:35:24.372
00:43:18.304                             : en:00:43:18.304
00:53:11.730                             : en:00:53:11.730
Beschreibung:
Game.of.Thrones.S03.COMPLETE.GERMAN.AC3D.5.1.DL.1080p.BluRay.x264-PRETAiL
In der dritten Staffel der Hitserie von HBO© können sich die Lennisters gerade noch auf dem Thron halten, nachdem Stannis Baratheon ihnen in einer gewaltigen Seeschlacht große Verluste zugefügt hatte, während Umbrüche im Norden drohen, das Gleichgewicht der Macht zu zerstören. Robb Stark, dem König des Nordens, widerfährt großes Unheil, als er gegen die Lennisters zu Felde zieht, während hinter der Mauer Manke Rayder und seine riesige Armee von Wildlingen ihren unaufhaltsamen Marsch gen Süden fortsetzen. Jenseits der Meerenge gelingt es Daenerys Targaryen – wiedervereint mit ihren drei rasch wachsenden Drachen -, eine Armee zusammenzustellen um mit dieser von Essos aufzubrechen und den Eisernen Thron für sich zu beanspruchen. In der dritten Staffel der auf den Bestsellern von George R.R. Martin basierenden Originalserie kämpfen die verfeindeten Familien von Westeros weiter erbittert gegeneinander, wenn Bündnisse auf die Probe gestellt werden, Treue getestet wird und das Schicksal grausam zuschlägt.
Direct Download Links | DDL-Links

Ähnliche Releases der Kategorie