Game.of.Thrones.S04.1080p.BluRay.AC3.DL.x264-HDC

8. Juli 2016 von
Game.of.Thrones.S04.1080p.BluRay.AC3.DL.x264-HDC Warez-World
Aufrufe: 97 Hits
Vote 4 Us
Release:
Game of Thrones Staffel 4 BD-RIP
Genre:
Fantasy
Größe:
60011 MB
Passwort:
Warez-World.org
Sprachen:
Video Codec:
MPEG-4 H.264 / AVC
Audio Stream:
Dolby Digital 5.1
Bewertung:
Video Vorschau:
Online Stream:
Info:
Zeige NFOVerberge NFO
General
Unique ID                                : 186760420480788905734958646464712819290 (0x8C80BFA5C247FB7D97DE5CC2F2BC425A)
Complete name                            : F:DownloadsGOTS041BADX-HDCGame.of.Thrones.S04E01.Zwei.Schwerter.1080p.BluRay.AC3.DL.x264-HDC.mkv
Format                                   : Matroska
Format version                           : Version 4 / Version 2
File size                                : 5.83 GiB
Duration                                 : 58mn 13s
Overall bit rate                         : 14.3 Mbps
Movie name                               : Game of Thrones S04E01 Zwei Schwerter - HDC
Encoded date                             : UTC 2015-03-29 07:58:14
Writing application                      : mkvmerge v7.8.0 ('River Man') 32bit built on Mar 27 2015 16:18:02
Writing library                          : libebml v1.3.1 + libmatroska v1.4.2

Video
ID                                       : 1
Format                                   : AVC
Format/Info                              : Advanced Video Codec
Format profile                           : High@L4.1
Format settings, CABAC                   : Yes
Format settings, ReFrames                : 4 frames
Codec ID                                 : V_MPEG4/ISO/AVC
Duration                                 : 58mn 13s
Bit rate                                 : 13.0 Mbps
Width                                    : 1 920 pixels
Height                                   : 1 080 pixels
Display aspect ratio                     : 16:9
Frame rate mode                          : Constant
Frame rate                               : 23.976 fps
Color space                              : YUV
Chroma subsampling                       : 4:2:0
Bit depth                                : 8 bits
Scan type                                : Progressive
Bits/(Pixel*Frame)                       : 0.262
Stream size                              : 5.20 GiB (89%)
Title                                    : 13 Mbps AVC MPEG-4
Writing library                          : x264 core 133 r2334 a3ac64b
Encoding settings                        : cabac=1 / ref=4 / deblock=1:0:0 / analyse=0x3:0x113 / me=umh / subme=9 / psy=1 / psy_rd=1.00:0.00 / mixed_ref=1 / me_range=32 / chroma_me=1 / trellis=2 / 8x8dct=1 / cqm=0 / deadzone=21,11 / fast_pskip=1 / chroma_qp_offset=-2 / threads=6 / lookahead_threads=1 / sliced_threads=0 / nr=0 / decimate=1 / interlaced=0 / bluray_compat=0 / constrained_intra=0 / bframes=5 / b_pyramid=2 / b_adapt=2 / b_bias=0 / direct=3 / weightb=1 / open_gop=0 / weightp=2 / keyint=250 / keyint_min=23 / scenecut=40 / intra_refresh=0 / rc_lookahead=120 / rc=2pass / mbtree=1 / bitrate=13039 / ratetol=1.0 / qcomp=0.80 / qpmin=0 / qpmax=69 / qpstep=4 / cplxblur=20.0 / qblur=0.5 / ip_ratio=1.40 / aq=1:1.20
Language                                 : English
Default                                  : Yes
Forced                                   : No

Audio #1
ID                                       : 2
Format                                   : AC-3
Format/Info                              : Audio Coding 3
Mode extension                           : CM (complete main)
Format settings, Endianness              : Big
Codec ID                                 : A_AC3
Duration                                 : 58mn 13s
Bit rate mode                            : Constant
Bit rate                                 : 640 Kbps
Channel(s)                               : 6 channels
Channel positions                        : Front: L C R, Side: L R, LFE
Sampling rate                            : 48.0 KHz
Bit depth                                : 16 bits
Compression mode                         : Lossy
Stream size                              : 267 MiB (4%)
Title                                    : 5.1 AC3 @ 640 kbps
Language                                 : German
Default                                  : Yes
Forced                                   : Yes

Audio #2
ID                                       : 3
Format                                   : AC-3
Format/Info                              : Audio Coding 3
Mode extension                           : CM (complete main)
Format settings, Endianness              : Big
Codec ID                                 : A_AC3
Duration                                 : 58mn 13s
Bit rate mode                            : Constant
Bit rate                                 : 640 Kbps
Channel(s)                               : 6 channels
Channel positions                        : Front: L C R, Side: L R, LFE
Sampling rate                            : 48.0 KHz
Bit depth                                : 16 bits
Compression mode                         : Lossy
Stream size                              : 267 MiB (4%)
Title                                    : 5.1 AC3 @ 640 kbps
Language                                 : English
Default                                  : No
Forced                                   : No

Text #1
ID                                       : 4
Format                                   : PGS
Muxing mode                              : zlib
Codec ID                                 : S_HDMV/PGS
Codec ID/Info                            : Picture based subtitle format used on BDs/HD-DVDs
Title                                    : Forced
Language                                 : German
Default                                  : Yes
Forced                                   : Yes

Text #2
ID                                       : 5
Format                                   : PGS
Muxing mode                              : zlib
Codec ID                                 : S_HDMV/PGS
Codec ID/Info                            : Picture based subtitle format used on BDs/HD-DVDs
Language                                 : German
Default                                  : No
Forced                                   : No

Text #3
ID                                       : 6
Format                                   : PGS
Muxing mode                              : zlib
Codec ID                                 : S_HDMV/PGS
Codec ID/Info                            : Picture based subtitle format used on BDs/HD-DVDs
Title                                    : Forced
Language                                 : English
Default                                  : No
Forced                                   : Yes

Text #4
ID                                       : 7
Format                                   : PGS
Muxing mode                              : zlib
Codec ID                                 : S_HDMV/PGS
Codec ID/Info                            : Picture based subtitle format used on BDs/HD-DVDs
Language                                 : English
Default                                  : No
Forced                                   : No

Menu
00:00:00.000                             : en:00:00:00.000
00:00:07.007                             : en:00:00:07.007
00:01:50.485                             : en:00:01:50.485
00:03:38.760                             : en:00:03:38.760
00:09:27.776                             : en:00:09:27.776
00:17:01.979                             : en:00:17:01.979
00:25:16.265                             : en:00:25:16.265
00:36:17.842                             : en:00:36:17.842
00:46:36.252                             : en:00:46:36.252
00:56:51.325                             : en:00:56:51.325
Beschreibung:
Game.of.Thrones.S04.1080p.BluRay.AC3.DL.x264-HDC
In dieser herausragenden vierten Staffel basierend auf George R.R. Martins Bestsellern bleibt die Herrschaft der Lennisters über den Eisernen Thron unberührt, aber ihr eigener Ehrgeiz, sowie die dauernden Angriffe von außen stellen eine ständige Bedrohung dar. Während der unerschütterliche Stannis Baratheon weiter seine Armee auf Drachenstein zusammenstellt, nähert sich eine noch größere Gefahr von Süden, in Person von Oberyn Martell, der „Roten Viper von Dorne“, der zu Joffreys Hochzeit in Königsmund eintrifft und die Lennisters von ganzem Herzen hasst. An der Mauer scheint die Nachtwache Manke Rayders schnell vordringender Armee von Wildlingen überlegen zu sein, der ein noch stärkerer Feind folgt. Daenerys Targaryen, begleitet von ihren drei wilden Drachen und der Armee der Unberührten ist unterdes besessen davon, Meereen, die größte Sklavenstadt des Ostens , zu „befreien, was ihr die nötige Streitkraft bescheren könnte und sie ihrem Plan, den Eisernen Thron für sich und ihre Familie zu beanspruchen, näher brächte.
Direct Download Links | DDL-Links

Ähnliche Releases der Kategorie