Game.of.Thrones.S05.Complete.German.1080p.BluRay.AC3.DL.x264-HDC

8. Juli 2016 von
Game.of.Thrones.S05.Complete.German.1080p.BluRay.AC3.DL.x264-HDC Warez-World
Aufrufe: 243 Hits
Vote 4 Us
Release:
Game of Thrones Staffel 5 BD
Genre:
Fantasy
Größe:
58502 MB
Passwort:
Warez-World.org
Sprachen:
Video Codec:
MPEG-4 H.264 / AVC
Audio Stream:
Dolby Digital 5.1
Bewertung:
Video Vorschau:
Online Stream:
Info:
Zeige NFOVerberge NFO
General
Unique ID                                : 241640843183903221318984240707582050805 (0xB5CA5564ADC32B37BF06FFDE124041F5)
Complete name                            : F:DownloadsGOTS05CG1BADX-HDCGame.of.Thrones.S05E01.Die.Kriege.die.da.kommen.1080p.BluRay.AC3.DL.x264-HDC.mkv
Format                                   : Matroska
Format version                           : Version 4 / Version 2
File size                                : 6.64 GiB
Duration                                 : 52mn 11s
Overall bit rate                         : 18.2 Mbps
Encoded date                             : UTC 2016-03-10 08:15:22
Writing application                      : mkvmerge v8.2.0 ('World of Adventure') 32bit
Writing library                          : libebml v1.3.1 + libmatroska v1.4.2

Video
ID                                       : 1
Format                                   : AVC
Format/Info                              : Advanced Video Codec
Format profile                           : High@L4.1
Format settings, CABAC                   : Yes
Format settings, ReFrames                : 4 frames
Codec ID                                 : V_MPEG4/ISO/AVC
Duration                                 : 52mn 11s
Bit rate                                 : 16.9 Mbps
Width                                    : 1 920 pixels
Height                                   : 1 080 pixels
Display aspect ratio                     : 16:9
Frame rate mode                          : Constant
Frame rate                               : 23.976 fps
Color space                              : YUV
Chroma subsampling                       : 4:2:0
Bit depth                                : 8 bits
Scan type                                : Progressive
Bits/(Pixel*Frame)                       : 0.340
Stream size                              : 6.04 GiB (91%)
Title                                    : 16 Mbps  AVC MPEG-4
Writing library                          : x264 core 148 r2665kMod a01e339
Encoding settings                        : cabac=1 / ref=4 / deblock=1:0:0 / analyse=0x3:0x113 / me=umh / subme=9 / psy=1 / fade_compensate=0.00 / psy_rd=1.00:0.00 / mixed_ref=1 / me_range=32 / chroma_me=1 / trellis=2 / 8x8dct=1 / cqm=0 / deadzone=21,11 / fast_pskip=1 / chroma_qp_offset=-2 / threads=6 / lookahead_threads=1 / sliced_threads=0 / nr=0 / decimate=1 / interlaced=0 / bluray_compat=0 / constrained_intra=0 / fgo=0 / bframes=5 / b_pyramid=2 / b_adapt=2 / b_bias=0 / direct=3 / weightb=1 / open_gop=0 / weightp=2 / keyint=250 / keyint_min=23 / scenecut=40 / intra_refresh=0 / rc_lookahead=120 / rc=2pass / mbtree=1 / bitrate=16911 / ratetol=1.0 / qcomp=0.80 / qpmin=0 / qpmax=69 / qpstep=4 / cplxblur=20.0 / qblur=0.5 / ip_ratio=1.40 / aq=1:1.00
Language                                 : English
Default                                  : Yes
Forced                                   : No

Audio #1
ID                                       : 2
Format                                   : AC-3
Format/Info                              : Audio Coding 3
Mode extension                           : CM (complete main)
Format settings, Endianness              : Big
Codec ID                                 : A_AC3
Duration                                 : 52mn 11s
Bit rate mode                            : Constant
Bit rate                                 : 448 Kbps
Channel(s)                               : 6 channels
Channel positions                        : Front: L C R, Side: L R, LFE
Sampling rate                            : 48.0 KHz
Bit depth                                : 16 bits
Compression mode                         : Lossy
Stream size                              : 167 MiB (2%)
Title                                    : 5.1 AC3 @ 448 kbps
Language                                 : German
Default                                  : Yes
Forced                                   : Yes

Audio #2
ID                                       : 3
Format                                   : AC-3
Format/Info                              : Audio Coding 3
Mode extension                           : CM (complete main)
Format settings, Endianness              : Big
Codec ID                                 : A_AC3
Duration                                 : 52mn 11s
Bit rate mode                            : Constant
Bit rate                                 : 640 Kbps
Channel(s)                               : 6 channels
Channel positions                        : Front: L C R, Side: L R, LFE
Sampling rate                            : 48.0 KHz
Bit depth                                : 16 bits
Compression mode                         : Lossy
Stream size                              : 239 MiB (4%)
Title                                    : 5.1 AC3-EX @ 640 kbps
Language                                 : English
Default                                  : No
Forced                                   : No

Audio #3
ID                                       : 4
Format                                   : E-AC-3
Format/Info                              : Audio Coding 3
Format settings, Endianness              : Big
Codec ID                                 : A_EAC3
Duration                                 : 52mn 11s
Bit rate mode                            : Constant
Bit rate                                 : 192 Kbps
Channel(s)                               : 2 channels
Channel positions                        : Front: L R
Sampling rate                            : 48.0 KHz
Compression mode                         : Lossy
Stream size                              : 71.7 MiB (1%)
Title                                    : 2.0 EAC3 @ 192 kbps - Commentary
Language                                 : English
Default                                  : No
Forced                                   : No

Text #1
ID                                       : 5
Format                                   : PGS
Muxing mode                              : zlib
Codec ID                                 : S_HDMV/PGS
Codec ID/Info                            : Picture based subtitle format used on BDs/HD-DVDs
Title                                    : Forced
Language                                 : German
Default                                  : Yes
Forced                                   : Yes

Text #2
ID                                       : 6
Format                                   : PGS
Muxing mode                              : zlib
Codec ID                                 : S_HDMV/PGS
Codec ID/Info                            : Picture based subtitle format used on BDs/HD-DVDs
Language                                 : German
Default                                  : No
Forced                                   : No

Text #3
ID                                       : 7
Format                                   : PGS
Muxing mode                              : zlib
Codec ID                                 : S_HDMV/PGS
Codec ID/Info                            : Picture based subtitle format used on BDs/HD-DVDs
Title                                    : Forced
Language                                 : English
Default                                  : No
Forced                                   : Yes

Text #4
ID                                       : 8
Format                                   : PGS
Muxing mode                              : zlib
Codec ID                                 : S_HDMV/PGS
Codec ID/Info                            : Picture based subtitle format used on BDs/HD-DVDs
Language                                 : English
Default                                  : No
Forced                                   : No

Menu
00:00:00.000                             : en:00:00:00.000
00:01:55.532                             : en:00:01:55.532
00:09:24.564                             : en:00:09:24.564
00:18:00.663                             : en:00:18:00.663
00:24:16.455                             : en:00:24:16.455
00:32:26.820                             : en:00:32:26.820
00:41:24.107                             : en:00:41:24.107
00:50:51.924                             : en:00:50:51.924
Beschreibung:
Game.of.Thrones.S05.Complete.German.1080p.BluRay.AC3.DL.x264-HDC
Game of Thrones ist die Serie mit den meisten Zuschauern in der Geschichte von HBO – ein weltweites TV-Phänomen. Die nach wie vor äußerst erfolgreiche Serie hat für die fünfte Staffel zwölf Emmys gewonnen – mehr als je eine TV-Serie in einem Jahr. Zu Beginn dieser Staffel ergibt sich ein Machtvakuum, das die Protagonisten in Westeros und Essos unbedingt füllen wollen: In der Schwarzen Festung versucht Jon Snow die Forderungen der Nachtwache und jene des gerade eingetroffenen Stannis Baratheon auszugleichen – Stannis stilisiert sich selbst zum rechtmäßigen König von Westeros. Gleichzeitig klammert sich Cersei unter den Tyrells krampfhaft an die Macht in Königsmund, wo eine religiöse Gruppierung unter Führung des rätselhaften Hohen Spatzen an Einfluss gewinnt, während Jaime zu einer geheimen Mission aufbricht. Jenseits der Meerenge sucht Arya einen alten Freund, während der Flüchtling Tyrion eine neue Aufgabe findet. Und als es in Meereen immer gefährlicher wird, merkt Daenerys Targaryen, dass ihre schwache Herrschaftsposition in der Stadt einige schwere Opfer erfordert. Diese Staffel wird von etlichen der bisher explosivsten Szenen geprägt, wobei sich das Versprechen, dass „der Winter kommt“, als ständig wachsende Bedrohung herausstellt.
Direct Download Links | DDL-Links

Ähnliche Releases der Kategorie