Game.of.Thrones.S06.COMPLETE.GERMAN.AC3.5.1.DL.1080p.WEB.-.DL.x264-PRETAiL

8. Juli 2016 von
Game.of.Thrones.S06.COMPLETE.GERMAN.AC3.5.1.DL.1080p.WEB.-.DL.x264-PRETAiL Warez-World
Aufrufe: 265 Hits
Vote 4 Us
Release:
Game of Thrones Staffel 6 WEB-DL
Genre:
Fantasy
Größe:
19830 MB
Passwort:
Warez-World.org
Sprachen:
Video Codec:
MPEG-4 H.264 / AVC
Audio Stream:
Dolby Digital 5.1
Bewertung:
Video Vorschau:
Online Stream:
Info:
Zeige NFOVerberge NFO
General
Unique ID                                : 221112654445271544120646032951705485905 (0xA658BF8BDD41A74EAFCFDF47B97A4251)
Complete name                            : F:MoviesUNP GOT6 GER DL 1080p WDL x264 - PRETAiLGam.of.Throns.S06E01.GER.A3.5.1.DL.108p.W-DL.x264-PRETAiL.mkv
Format                                   : Matroska
Format version                           : Version 2
File size                                : 2.08 GiB
Duration                                 : 50mn 6s
Overall bit rate                         : 5 947 Kbps
Movie name                               : PRETAiL
Encoded date                             : UTC 2016-05-04 09:59:10
Writing application                      : mkvmerge v3.4.0 ('Rapunzel') gebaut am May 15 2010 09:38:20
Writing library                          : libebml v0.8.0 + libmatroska v0.9.0

Video
ID                                       : 1
Format                                   : AVC
Format/Info                              : Advanced Video Codec
Format profile                           : High@L4.1
Format settings, CABAC                   : Yes
Format settings, ReFrames                : 4 frames
Codec ID                                 : V_MPEG4/ISO/AVC
Duration                                 : 50mn 6s
Bit rate                                 : 5 061 Kbps
Width                                    : 1 912 pixels
Height                                   : 1 072 pixels
Display aspect ratio                     : 16:9
Frame rate mode                          : Constant
Frame rate                               : 23.976 fps
Color space                              : YUV
Chroma subsampling                       : 4:2:0
Bit depth                                : 8 bits
Scan type                                : Progressive
Bits/(Pixel*Frame)                       : 0.103
Stream size                              : 1.77 GiB (85%)
Title                                    : 1080p PRETAiL
Writing library                          : x264 core 146 r2538 121396c
Encoding settings                        : cabac=1 / ref=4 / deblock=1:-3:-3 / analyse=0x3:0x113 / me=esa / subme=10 / psy=1 / psy_rd=1.10:0.00 / mixed_ref=1 / me_range=24 / chroma_me=1 / trellis=2 / 8x8dct=1 / cqm=0 / deadzone=21,11 / fast_pskip=0 / chroma_qp_offset=-2 / threads=12 / lookahead_threads=1 / sliced_threads=0 / nr=0 / decimate=1 / interlaced=0 / bluray_compat=0 / constrained_intra=0 / bframes=5 / b_pyramid=2 / b_adapt=1 / b_bias=0 / direct=3 / weightb=1 / open_gop=0 / weightp=2 / keyint=250 / keyint_min=23 / scenecut=40 / intra_refresh=0 / rc=crf / mbtree=0 / crf=20.0 / qcomp=0.60 / qpmin=16 / qpmax=69 / qpstep=4 / ip_ratio=1.40 / pb_ratio=1.30 / aq=1:1.00
Language                                 : English
Default                                  : Yes
Forced                                   : Yes

Audio #1
ID                                       : 2
Format                                   : AC-3
Format/Info                              : Audio Coding 3
Mode extension                           : CM (complete main)
Format settings, Endianness              : Big
Codec ID                                 : A_AC3
Duration                                 : 50mn 6s
Bit rate mode                            : Constant
Bit rate                                 : 384 Kbps
Channel(s)                               : 6 channels
Channel positions                        : Front: L C R, Side: L R, LFE
Sampling rate                            : 48.0 KHz
Bit depth                                : 16 bits
Compression mode                         : Lossy
Stream size                              : 138 MiB (6%)
Title                                    : AC3 5.1
Language                                 : German
Default                                  : Yes
Forced                                   : Yes

Audio #2
ID                                       : 3
Format                                   : AC-3
Format/Info                              : Audio Coding 3
Mode extension                           : CM (complete main)
Format settings, Endianness              : Big
Codec ID                                 : A_AC3
Duration                                 : 50mn 6s
Bit rate mode                            : Constant
Bit rate                                 : 384 Kbps
Channel(s)                               : 6 channels
Channel positions                        : Front: L C R, Side: L R, LFE
Sampling rate                            : 48.0 KHz
Bit depth                                : 16 bits
Compression mode                         : Lossy
Delay relative to video                  : 40ms
Stream size                              : 138 MiB (6%)
Title                                    : AC3 5.1
Language                                 : English
Default                                  : No
Forced                                   : No

Text #1
ID                                       : 4
Format                                   : ASS
Codec ID                                 : S_TEXT/ASS
Codec ID/Info                            : Advanced Sub Station Alpha
Compression mode                         : Lossless
Language                                 : German
Default                                  : Yes
Forced                                   : Yes

Text #2
ID                                       : 5
Format                                   : UTF-8
Codec ID                                 : S_TEXT/UTF8
Codec ID/Info                            : UTF-8 Plain Text
Title                                    : full subs
Language                                 : German
Default                                  : No
Forced                                   : No

Text #3
ID                                       : 6
Format                                   : UTF-8
Codec ID                                 : S_TEXT/UTF8
Codec ID/Info                            : UTF-8 Plain Text
Title                                    : full subs
Language                                 : English
Default                                  : No
Forced                                   : No
Beschreibung:
Game.of.Thrones.S06.COMPLETE.GERMAN.AC3.5.1.DL.1080p.WEB.-.DL.x264-PRETAiL
Die sechste Staffel der US-amerikanischen Fantasy-Drama-Serie Game of Thrones wurde zum ersten Mal zwischen dem 24. April 2016 und dem 26. Juni 2016 auf HBO ausgestrahlt. Game of Thrones - Staffel 6 basiert auf der zugrundeliegenden Reihe A Song of Ice and Fire von George R.R. Martin und lehnt sich insbesondere an die Bücher A Feast for Crows, A Dance with Dragons und The Winds of Winter an.
Direct Download Links | DDL-Links

Ähnliche Releases der Kategorie