Game.of.Thrones.S06E03.Eidbrecher.German.AC3.Dubbed.DL.720p.HDTV.x264-iND

28. Mai 2016 von
Game.of.Thrones.S06E03.Eidbrecher.German.AC3.Dubbed.DL.720p.HDTV.x264-iND Warez-World
Aufrufe: 56 Hits
Vote 4 Us
Release:
Game of Thrones S06E03 Eidbrecher TV-RIP
Genre:
Horror
Laufzeit:
60 Min.
Größe:
1088 MB
Passwort:
Warez-World.org
Sprachen:
Video Codec:
MPEG-4 H.264 / AVC
Audio Stream:
Dolby Digital 5.1
Bewertung:
Video Vorschau:
Online Stream:
Info:
Zeige NFOVerberge NFO
General

Complete name                  : got-s06e03-720p.mkv
Format                         : Matroska
Format version                 : Version 4 / Version 2
File size                      : 1.06 GiB
Duration                       : 52mn 18s
Overall bit rate               : 2 907 Kbps

Video
ID                             : 1
Format                         : AVC
Format/Info                    : Advanced Video Codec
Format profile                 : High@L4.1
Format settings, CABAC         : Yes
Format settings, ReFrames      : 5 frames
Codec ID                       : V_MPEG4/ISO/AVC
Duration                       : 52mn 8s
Bit rate                       : 2 337 Kbps
Width                          : 1 280 pixels
Height                         : 718 pixels
Display aspect ratio           : 16:9
Frame rate mode                : Constant
Frame rate                     : 23.976 (24000/1001) fps
Color space                    : YUV
Chroma subsampling             : 4:2:0
Bit depth                      : 8 bits
Scan type                      : Progressive
Bits/(Pixel*Frame)             : 0.106
Stream size                    : 872 MiB (80%)
Writing library                : x264 core 148 r2665 a01e339
Encoding settings              : cabac=1 / ref=5 / deblock=1:0:0 / analyse=0x3:0x113 / me=umh / subme=8 / psy=1 / psy_rd=1.00:0.00 / mixed_ref=1 / me_range=16 / chroma_me=1 / trellis=1 / 8x8dct=1 / cqm=0 / deadzone=21,11 / fast_pskip=1 / chroma_qp_offset=-2 / threads=22 / lookahead_threads=3 / sliced_threads=0 / nr=0 / decimate=1 / interlaced=0 / bluray_compat=0 / constrained_intra=0 / bframes=3 / b_pyramid=2 / b_adapt=2 / b_bias=0 / direct=3 / weightb=1 / open_gop=0 / weightp=2 / keyint=250 / keyint_min=23 / scenecut=40 / intra_refresh=0 / rc_lookahead=50 / rc=crf / mbtree=1 / crf=18.0 / qcomp=0.60 / qpmin=0 / qpmax=69 / qpstep=4 / ip_ratio=1.40 / aq=1:1.00
Default                        : Yes
Forced                         : No
Color range                    : Limited
Matrix coefficients            : BT.709

Audio #1
ID                             : 2
Format                         : AC-3
Format/Info                    : Audio Coding 3
Mode extension                 : CM (complete main)
Format settings, Endianness    : Big
Codec ID                       : A_AC3
Duration                       : 52mn 18s
Bit rate mode                  : Constant
Bit rate                       : 192 Kbps
Channel(s)                     : 2 channels
Channel positions              : Front: L R
Sampling rate                  : 48.0 KHz
Frame rate                     : 31.250 fps (1536 spf)
Compression mode               : Lossy
Stream size                    : 71.8 MiB (7%)
Language                       : German
Default                        : Yes
Forced                         : Yes

Audio #2
ID                             : 3
Format                         : AC-3
Format/Info                    : Audio Coding 3
Mode extension                 : CM (complete main)
Format settings, Endianness    : Big
Codec ID                       : A_AC3
Duration                       : 52mn 8s
Bit rate mode                  : Constant
Bit rate                       : 384 Kbps
Channel(s)                     : 6 channels
Channel positions              : Front: L C R, Side: L R, LFE
Sampling rate                  : 48.0 KHz
Frame rate                     : 31.250 fps (1536 spf)
Compression mode               : Lossy
Stream size                    : 143 MiB (13%)
Language                       : English
Default                        : No
Forced                         : No
Beschreibung:
Game.of.Thrones.S06E03.Eidbrecher.German.AC3.Dubbed.DL.720p.HDTV.x264-iND
Ein Wissenschaftler arbeitet mit Hochdruck an einem Medikament für seine schwer kranke Schwester. Ein Unbekannter unterstützt ihn dabei, indem er ihm Leichen zum experimentieren liefert. Doch dann beginnt der Unbekannte, den Wissenschaftler zu erpressen - keine gute Idee!
Direct Download Links | DDL-Links

Ähnliche Releases der Kategorie