Game.of.Thrones.S06E05.Das.Toor.German.AC3.Dubbed.DL.1080p.HDTV.x264-iND

28. Mai 2016 von
Game.of.Thrones.S06E05.Das.Toor.German.AC3.Dubbed.DL.1080p.HDTV.x264-iND Warez-World
Aufrufe: 67 Hits
Vote 4 Us
Release:
Game of Thrones S06E05 Das Toor TV-RIP
Genre:
Drama
Laufzeit:
60 Min.
Größe:
3955 MB
Passwort:
Warez-World.org
Sprachen:
Video Codec:
MPEG-4 H.264 / AVC
Audio Stream:
Dolby Digital 5.1
Bewertung:
Video Vorschau:
Online Stream:
Info:
Zeige NFOVerberge NFO
General
Unique ID                      : 188625373431864138310394696094532139801 (0x8DE7ECED546CF84CA0416A3BAA2A7B19)
Complete name                  : got-s06e05-1080p.mkv
Format                         : Matroska
Format version                 : Version 4 / Version 2
File size                      : 3.86 GiB
Duration                       : 56mn 44s
Overall bit rate               : 9 746 Kbps

Video
ID                             : 1
Format                         : AVC
Format/Info                    : Advanced Video Codec
Format profile                 : High@L4.1
Format settings, CABAC         : Yes
Format settings, ReFrames      : 4 frames
Codec ID                       : V_MPEG4/ISO/AVC
Duration                       : 56mn 44s
Bit rate                       : 8 976 Kbps
Width                          : 1 920 pixels
Height                         : 1 078 pixels
Display aspect ratio           : 16:9
Frame rate mode                : Constant
Frame rate                     : 23.976 fps
Color space                    : YUV
Chroma subsampling             : 4:2:0
Bit depth                      : 8 bits
Scan type                      : Progressive
Bits/(Pixel*Frame)             : 0.181
Stream size                    : 3.56 GiB (92%)
Writing library                : x264 core 148 r2665+53 6629127 t_mod_Custom [8-bit@all X86_64]
Encoding settings              : cabac=1 / ref=4 / deblock=1:-3:-3 / analyse=0x3:0x113 / me=umh / subme=11 / psy=1 / fade_compensate=0.00 / psy_rd=1.00:0.00 / mixed_ref=1 / me_range=32 / chroma_me=1 / trellis=2 / 8x8dct=1 / cqm=0 / deadzone=21,11 / fast_pskip=0 / chroma_qp_offset=-2 / threads=24 / lookahead_threads=4 / sliced_threads=0 / nr=0 / decimate=0 / interlaced=0 / bluray_compat=0 / constrained_intra=0 / fgo=0 / bframes=8 / b_pyramid=2 / b_adapt=2 / b_bias=0 / direct=3 / weightb=1 / open_gop=0 / weightp=2 / keyint=250 / keyint_min=23 / scenecut=40 / intra_refresh=0 / rc_lookahead=60 / rc=crf / mbtree=0 / crf=17.5000 / qcomp=0.60 / qpmin=0:0:0 / qpmax=69:69:69 / qpstep=4 / vbv_maxrate=62500 / vbv_bufsize=78125 / crf_max=0.0 / nal_hrd=none / filler=0 / ip_ratio=1.40 / pb_ratio=1.30 / aq=3:0.80 / aq-sensitivity=10.00 / aq-factor=1.00:1.00:1.00 / aq2=0 / aq3=0
Default                        : Yes
Forced                         : No
DURATION                       : 00:56:44.401000000
NUMBER_OF_FRAMES               : 81624
NUMBER_OF_BYTES                : 3901258114

Audio #1
ID                             : 2
Format                         : AC-3
Format/Info                    : Audio Coding 3
Mode extension                 : CM (complete main)
Format settings, Endianness    : Big
Codec ID                       : A_AC3
Duration                       : 56mn 44s
Bit rate mode                  : Constant
Bit rate                       : 192 Kbps
Channel(s)                     : 2 channels
Channel positions              : Front: L R
Sampling rate                  : 48.0 KHz
Bit depth                      : 16 bits
Compression mode               : Lossy
Stream size                    : 77.9 MiB (2%)
Language                       : German
Default                        : Yes
Forced                         : Yes

Audio #2
ID                             : 3
Format                         : AC-3
Format/Info                    : Audio Coding 3
Mode extension                 : CM (complete main)
Format settings, Endianness    : Big
Codec ID                       : A_AC3
Duration                       : 56mn 44s
Bit rate mode                  : Constant
Bit rate                       : 384 Kbps
Channel(s)                     : 6 channels
Channel positions              : Front: L C R, Side: L R, LFE
Sampling rate                  : 48.0 KHz
Bit depth                      : 16 bits
Compression mode               : Lossy
Stream size                    : 156 MiB (4%)
Language                       : English
Default                        : No
Forced                         : No
Beschreibung:
Game.of.Thrones.S06E05.Das.Toor.German.AC3.Dubbed.DL.1080p.HDTV.x264-iND
In den sieben Königreichen von Westeros können die uns bekannten Jahreszeiten Jahrzehnte andauern. Die Serie folgt den noblen Herrscherfamilien, die um die Kontrolle über den eisernen Thron kämpfen. Doch sie müssen auch gemeinsam gegen böse Mächte aus dem eisigen Norden und eine verbannte Königsfamilie antreten.
Direct Download Links | DDL-Links

Ähnliche Releases der Kategorie