Game.of.Thrones.S06E05.Das.Toor.German.AC3.Dubbed.DL.720p.HDTV.x264-iND

28. Mai 2016 von
Game.of.Thrones.S06E05.Das.Toor.German.AC3.Dubbed.DL.720p.HDTV.x264-iND Warez-World
Aufrufe: 48 Hits
Vote 4 Us
Release:
Game of Thrones S06E05 Das Toor TV-RIP
Genre:
Horror
Laufzeit:
60 Min.
Größe:
1387 MB
Passwort:
Warez-World.org
Sprachen:
Video Codec:
MPEG-4 H.264 / AVC
Audio Stream:
Dolby Digital 5.1
Bewertung:
Video Vorschau:
Online Stream:
Info:
Zeige NFOVerberge NFO
General
Unique ID                      : 210928266150273301058293973766028935000 (0x9EAF4E6F8D531F29B9447FCEF9383F58)
Complete name                  : got-s06e05-720p.mkv
Format                         : Matroska
Format version                 : Version 4 / Version 2
File size                      : 1.35 GiB
Duration                       : 56mn 41s
Overall bit rate               : 3 420 Kbps

Video
ID                             : 1
Format                         : AVC
Format/Info                    : Advanced Video Codec
Format profile                 : High@L4.1
Format settings, CABAC         : Yes
Format settings, ReFrames      : 5 frames
Codec ID                       : V_MPEG4/ISO/AVC
Duration                       : 56mn 41s
Bit rate                       : 2 776 Kbps
Width                          : 1 280 pixels
Height                         : 718 pixels
Display aspect ratio           : 16:9
Frame rate mode                : Constant
Frame rate                     : 23.976 fps
Color space                    : YUV
Chroma subsampling             : 4:2:0
Bit depth                      : 8 bits
Scan type                      : Progressive
Bits/(Pixel*Frame)             : 0.126
Stream size                    : 1.10 GiB (81%)
Writing library                : x264 core 148 r2692 64f4e24
Encoding settings              : cabac=1 / ref=5 / deblock=1:0:0 / analyse=0x3:0x113 / me=umh / subme=8 / psy=1 / psy_rd=1.00:0.00 / mixed_ref=1 / me_range=16 / chroma_me=1 / trellis=1 / 8x8dct=1 / cqm=0 / deadzone=21,11 / fast_pskip=1 / chroma_qp_offset=-2 / threads=22 / lookahead_threads=3 / sliced_threads=0 / nr=0 / decimate=1 / interlaced=0 / bluray_compat=0 / constrained_intra=0 / bframes=3 / b_pyramid=2 / b_adapt=2 / b_bias=0 / direct=3 / weightb=1 / open_gop=0 / weightp=2 / keyint=250 / keyint_min=23 / scenecut=40 / intra_refresh=0 / rc_lookahead=50 / rc=crf / mbtree=1 / crf=18.0 / qcomp=0.60 / qpmin=0 / qpmax=69 / qpstep=4 / ip_ratio=1.40 / aq=1:1.00
Default                        : Yes
Forced                         : No
Matrix coefficients            : BT.709

Audio #1
ID                             : 2
Format                         : AC-3
Format/Info                    : Audio Coding 3
Mode extension                 : CM (complete main)
Format settings, Endianness    : Big
Codec ID                       : A_AC3
Duration                       : 56mn 41s
Bit rate mode                  : Constant
Bit rate                       : 192 Kbps
Channel(s)                     : 2 channels
Channel positions              : Front: L R
Sampling rate                  : 48.0 KHz
Bit depth                      : 16 bits
Compression mode               : Lossy
Stream size                    : 77.8 MiB (6%)
Language                       : German
Default                        : Yes
Forced                         : Yes

Audio #2
ID                             : 3
Format                         : AC-3
Format/Info                    : Audio Coding 3
Mode extension                 : CM (complete main)
Format settings, Endianness    : Big
Codec ID                       : A_AC3
Duration                       : 56mn 41s
Bit rate mode                  : Constant
Bit rate                       : 384 Kbps
Channel(s)                     : 6 channels
Channel positions              : Front: L C R, Side: L R, LFE
Sampling rate                  : 48.0 KHz
Bit depth                      : 16 bits
Compression mode               : Lossy
Stream size                    : 156 MiB (11%)
Language                       : English
Default                        : No
Forced                         : No
Beschreibung:
Game.of.Thrones.S06E05.Das.Toor.German.AC3.Dubbed.DL.720p.HDTV.x264-iND
Amy, eine junge Amish-Frau hat eine übernatürliche Gabe. Sie kann Dinge vorhersehen. Seltsame Todesfälle in ihrer Gemeinde führen bei Amy schließlich zu schrecklichen Visionen. So sieht sie vorher, dass ihre gesamte Gemeinde dem Untergang geweiht ist. Dämonische Kräfte übernehmen nach und nach die Kontrolle der Einwohner. Doch die Teufelsbeschwörungen scheinen aus dem inneren ihrer Gemeinde selbst zu kommen. Zusammen mit dem örtlichen Bestattungsunternehmer Chris versucht sie nun die Person zu finden, die offensichtlich mit dem Teufel im Bunde steht.
Direct Download Links | DDL-Links

Ähnliche Releases der Kategorie