Ghostbusters.2016.TS.XviD-BiGDADDYVAiN

22. Juli 2016 von
Ghostbusters.2016.TS.XviD-BiGDADDYVAiN Warez-World
Aufrufe: 664 Hits
Vote 4 Us
Release:
Ghostbusters 2016 TS
Genre:
Action
Laufzeit:
116 Min.
Größe:
1128 MB
Passwort:
Kein Passwort
Sprachen:
Video Codec:
MPEG-4 DivX / Xvid
Audio Stream:
Dolby Digital 5.1
Bewertung:
Video Vorschau:
Online Stream:
Info:
Zeige NFOVerberge NFO
Following a ghost invasion of Manhattan, paranormal enthusiasts Erin Gilbert and Abby Yates, nuclear
engineer Jillian Holtzmann, and subway worker Patty Tolan band together to stop the otherworldly
threat.

Director: Paul Feig
Writers: Katie Dippold, Paul Feig
Stars: Melissa McCarthy, Kristen Wiig, Kate McKinnon
Genres: Comedy | Fantasy | Sci-Fi
Country: USA
Language: English

Basic Information
Format : AVI
Format/Info : Audio Video Interleave
File size : 1.10 GiB
Duration : 1 h 55 min
Overall bit rate : 1 366 kb/s
Writing application : VirtualDubMod 1.5.10.2 (build 2540/release)
Writing library : VirtualDubMod build 2540/release

Video
ID : 0
Format : MPEG-4 Visual
Format profile : Advanced Simple@L5
Format settings, BVOP : 2
Format settings, QPel : No
Format settings, GMC : No warppoints
Format settings, Matrix : Default (H.263)
Muxing mode : Packed bitstream
Codec ID : XVID
Codec ID/Hint : XviD
Duration : 1 h 55 min
Bit rate : 1 163 kb/s
Width : 736 pixels
Height : 352 pixels
Display aspect ratio : 2.091
Frame rate : 29.970 (30000/1001) FPS
Color space : YUV
Chroma subsampling : 4:2:0
Bit depth : 8 bits
Scan type : Progressive
Compression mode : Lossy
Bits/(Pixel*Frame) : 0.150
Stream size : 960 MiB (85%)
Writing library : XviD 67

Audio
ID : 1
Format : MPEG Audio
Format version : Version 1
Format profile : Layer 3
Mode : Joint stereo
Mode extension : MS Stereo
Codec ID : 55
Codec ID/Hint : MP3
Duration : 1 h 55 min
Bit rate mode : Constant
Bit rate : 192 kb/s
Channel(s) : 2 channels
Sampling rate : 48.0 kHz
Compression mode : Lossy
Stream size : 159 MiB (14%)
Alignment : Aligned on interleaves
Interleave, duration : 33 ms (1.00 video frame)
Interleave, preload duratio : 504 ms

SOURCE......: ViDEO...DADDY [TY DADDY] 1st to bring this to the net...
AUDiO...DADDY
SAMPLE......: Yippers
ADDED NOTE..: Who you gonna call? Poo Shiners!!! :wink:
Looks like we have a call to sort out yet another turd... source used was dark, turd like and over
denoised. perspective looks off however, pulling it in would lose too much vid so left alone.
as usual, took our poo shine, and polished this up. got some dark spots, first 2 minutes are
whacked... audio is pretty good...

DISCLAiMER!!! no encoders were hurt durning the encode/re-ecode of this video... maybe some feelings
but just giving you all the love your deserve

ps hear there is a bigger better copy coming out... we will wait by the phone till the shiners are
called again... LOL!!!!!!
Beschreibung:
Ghostbusters.2016.TS.XviD-BiGDADDYVAiN
New York ist drauf und dran die gruseligste Stadt der Welt zu werden, denn immer mehr paranormale Ereignisse verbreiten Angst und Schrecken bei den Bewohnern. Zum Glück gibt es vier Frauen, die sich den Geistern in den Weg stellen: Abby Yates (Melissa McCarthy) hat schon immer an Gespenster geglaubt, egal, ob man sie dafür belächelt hat. Ihre alte Freundin Erin Gilbert (Kristen Wiig) hat hingegen ihren Glauben für eine Karriere als seriöse Physikerin aufgegeben, weshalb sie und Abby sich einst zerstritten hatten. Doch als sie von ihrer unheimlichen Vergangenheit eingeholt wird, bleibt ihr keine Wahl, als sich dem Paranormalen erneut zu stellen. Unterstützung erhalten sie dabei von Jillian Holtzmann (Kate McKinnon), einer genialen und schrägen Ingenieurin, und von Patty Tolan (Leslie Jones), einer Hobby-Historikerin New Yorks. Gemeinsam mischen sie die Stadt auf – als Geisterjägerinnen! Reboot zum „Ghostbusters“-Franchise, das 1984 seinen Anfang nahm.
Direct Download Links | DDL-Links

Ähnliche Releases der Kategorie