The.Gunman.2015.BDRip.AC3.German.XviD-FND

14. April 2016 von
The.Gunman.2015.BDRip.AC3.German.XviD-FND Warez-World
Aufrufe: 36 Hits
Vote 4 Us
Release:
The Gunman BD-RIP
Genre:
Drama
Laufzeit:
115 Min.
Größe:
1776 MB
Passwort:
Warez-World.org
Sprachen:
Video Codec:
MPEG-4 DivX / Xvid
Audio Stream:
Dolby Digital 5.1
Bewertung:
Video Vorschau:
Online Stream:
Info:
Zeige NFOVerberge NFO
General
Format                                   : AVI
Format/Info                              : Audio Video Interleave
File size                                : 1.73 GiB
Duration                                 : 1h 55mn
Overall bit rate                         : 2 153 Kbps

Video
ID                                       : 0
Format                                   : MPEG-4 Visual
Format settings, BVOP                    : 2
Format settings, QPel                    : No
Format settings, GMC                     : No warppoints
Format settings, Matrix                  : Default (MPEG)
Codec ID                                 : XVID
Codec ID/Hint                            : XviD
Duration                                 : 1h 55mn
Bit rate                                 : 1 760 Kbps
Width                                    : 720 pixels
Height                                   : 300 pixels
Display aspect ratio                     : 2.40:1
Frame rate                               : 24.000 fps
Color space                              : YUV
Chroma subsampling                       : 4:2:0
Bit depth                                : 8 bits
Scan type                                : Progressive
Compression mode                         : Lossy
Bits/(Pixel*Frame)                       : 0.339
Stream size                              : 1.42 GiB (82%)
Writing library                          : XviD 64

Audio
ID                                       : 1
Format                                   : AC-3
Format/Info                              : Audio Coding 3
Mode extension                           : CM (complete main)
Format settings, Endianness              : Big
Codec ID                                 : 2000
Duration                                 : 1h 55mn
Source duration                          : 1h 55mn
Bit rate mode                            : Constant
Bit rate                                 : 384 Kbps
Channel(s)                               : 6 channels
Channel positions                        : Front: L C R, Side: L R, LFE
Sampling rate                            : 48.0 KHz
Bit depth                                : 16 bits
Compression mode                         : Lossy
Stream size                              : 317 MiB (18%)
Alignment                                : Aligned on interleaves
Interleave, duration                     : 42 ms (1.00 video frame)

Beschreibung:
The.Gunman.2015.BDRip.AC3.German.XviD-FND
Jahre nach seinem letzten Einsatz holt die Vergangenheit den Ex-Söldner Jim Terrier ein. Er gerät ins Fadenkreuz seines ehemaligen Auftraggebers und ein gnadenloses Katz-und-Maus-Spiel von Afrika über London bis nach Barcelona beginnt. Terrier muss nicht nur um sein eigenes Leben kämpfen, sondern auch um die Frau, die er liebt. In einem nervenaufreibenden Showdown spitzen sich die Ereignisse im Kampf gegen eine übermächtige Organisation zu.
Direct Download Links | DDL-Links

Ähnliche Releases der Kategorie