Hack.Legend.of.the.Twilight.2003.Complete.German.DL.DVDRip.x264-iND

30. Juli 2016 von
Hack.Legend.of.the.Twilight.2003.Complete.German.DL.DVDRip.x264-iND Warez-World
Aufrufe: 250 Hits
Vote 4 Us
Release:
.hack//Legend of the Twilight DVD-RIP
Genre:
Anime
Laufzeit:
25 Min.
Größe:
4130 MB
Passwort:
Warez-World.org
Sprachen:
Video Codec:
MPEG-4 H.264 / AVC
Audio Stream:
Dolby Digital 2.0
Bewertung:
Video Vorschau:
Online Stream:
Info:
Zeige NFOVerberge NFO
General
Format                                   : Matroska
Format version                           : Version 2
File size                                : 344 MiB
Duration                                 : 23mn 39s
Overall bit rate                         : 2 034 Kbps
Encoded date                             : UTC 2013-03-10 20:34:11
Writing application                      : mkvmerge v5.8.0 ('No Sleep / Pillow') built on Sep  2 2012 15:37:04
Writing library                          : libebml v1.2.3 + libmatroska v1.3.0

Video
ID                                       : 1
Format                                   : AVC
Format/Info                              : Advanced Video Codec
Format profile                           : Main@L3
Format settings, CABAC                   : Yes
Format settings, ReFrames                : 2 frames
Codec ID                                 : V_MPEG4/ISO/AVC
Duration                                 : 23mn 39s
Bit rate                                 : 1 581 Kbps
Width                                    : 760 pixels
Height                                   : 432 pixels
Display aspect ratio                     : 16:9
Frame rate mode                          : Constant
Frame rate                               : 25.000 fps
Color space                              : YUV
Chroma subsampling                       : 4:2:0
Bit depth                                : 8 bits
Scan type                                : Progressive
Bits/(Pixel*Frame)                       : 0.193
Stream size                              : 261 MiB (76%)
Writing library                          : x264 core 93 r1538bm bd72d46
Encoding settings                        : cabac=1 / ref=1 / deblock=1:0:0 / analyse=0x1:0x131 / me=hex / subme=4 / psy=1 / psy_rd=0.00:0.00 / mixed_ref=0 / me_range=16 / chroma_me=0 / trellis=1 / 8x8dct=0 / cqm=0 / deadzone=21,11 / fast_pskip=1 / chroma_qp_offset=0 / threads=6 / sliced_threads=1 / slices=6 / nr=0 / decimate=1 / interlaced=0 / constrained_intra=0 / bframes=2 / b_pyramid=0 / b_adapt=1 / b_bias=0 / direct=1 / wpredb=1 / wpredp=2 / keyint=250 / keyint_min=25 / scenecut=40 / intra_refresh=0 / rc=2pass / mbtree=0 / bitrate=1581 / ratetol=1.0 / qcomp=0.60 / qpmin=10 / qpmax=51 / qpstep=4 / cplxblur=20.0 / qblur=0.5 / ip_ratio=1.40 / pb_ratio=1.30 / aq=1:1.00
Language                                 : German
Default                                  : Yes
Forced                                   : No

Audio #1
ID                                       : 2
Format                                   : AC-3
Format/Info                              : Audio Coding 3
Mode extension                           : CM (complete main)
Format settings, Endianness              : Big
Codec ID                                 : A_AC3
Duration                                 : 23mn 39s
Bit rate mode                            : Constant
Bit rate                                 : 224 Kbps
Channel(s)                               : 2 channels
Channel positions                        : Front: L R
Sampling rate                            : 48.0 KHz
Compression mode                         : Lossy
Stream size                              : 37.9 MiB (11%)
Title                                    : AC3 2.0
Language                                 : German
Default                                  : Yes
Forced                                   : No

Audio #2
ID                                       : 3
Format                                   : AC-3
Format/Info                              : Audio Coding 3
Mode extension                           : CM (complete main)
Format settings, Endianness              : Big
Codec ID                                 : A_AC3
Duration                                 : 23mn 39s
Bit rate mode                            : Constant
Bit rate                                 : 224 Kbps
Channel(s)                               : 2 channels
Channel positions                        : Front: L R
Sampling rate                            : 48.0 KHz
Compression mode                         : Lossy
Stream size                              : 37.9 MiB (11%)
Title                                    : AC3 2.0
Language                                 : Japanese
Default                                  : No
Forced                                   : No

Text
ID                                       : 4
Format                                   : VobSub
Muxing mode                              : zlib
Codec ID                                 : S_VOBSUB
Codec ID/Info                            : Picture based subtitle format used on DVDs
Title                                    : Full
Language                                 : German
Default                                  : No
Forced                                   : No

Menu
00:00:00.000                             : en:Ch. 01 @ 00:00:00
00:01:33.720                             : en:Ch. 02 @ 00:01:33
00:12:40.360                             : en:Ch. 03 @ 00:12:40
00:21:53.640                             : en:Ch. 04 @ 00:21:53
00:22:09.240                             : en:Ch. 05 @ 00:22:09

Beschreibung:
Hack.Legend.of.the.Twilight.2003.Complete.German.DL.DVDRip.x264-iND
Es sind nun vier Jahre vergangen, seit der Zwischenfall mit dem Schlüssel der Dämmerung "The World" - das erfolgreichste Online-Rollenspiel, das je entwickelt wurde - erschüttert hat. Dieser Zwischenfall hat das Spiel drastisch verändert, alle die diesem Event beigewohnt haben, haben das Spiel aufgegeben und die Erinnerung daran begann allmählich zu verblassen. "The World" hat sich weiter entwickelt, es ist nun sicherer... Episoden: 12
Direct Download Links | DDL-Links

Ähnliche Releases der Kategorie