Hack.SIGN.2002.Complete.German.DL.DVDRip.x264-AST4u

30. Juli 2016 von
Hack.SIGN.2002.Complete.German.DL.DVDRip.x264-AST4u Warez-World
Aufrufe: 236 Hits
Vote 4 Us
Release:
.hack//SIGN DVD-RIP
Genre:
Anime
Laufzeit:
25 Min.
Größe:
10260 MB
Passwort:
Warez-World.org
Sprachen:
Video Codec:
MPEG-4 H.264 / AVC
Audio Stream:
Dolby Digital 2.0
Bewertung:
Video Vorschau:
Online Stream:
Info:
Zeige NFOVerberge NFO
General
Format                                   : Matroska
Format version                           : Version 2
File size                                : 399 MiB
Duration                                 : 23mn 35s
Overall bit rate                         : 2 362 Kbps
Encoded date                             : UTC 2013-03-10 19:44:39
Writing application                      : mkvmerge v5.8.0 ('No Sleep / Pillow') built on Sep  2 2012 15:37:04
Writing library                          : libebml v1.2.3 + libmatroska v1.3.0

Video
ID                                       : 1
Format                                   : AVC
Format/Info                              : Advanced Video Codec
Format settings, CABAC                   : Yes
Format settings, ReFrames                : 2 frames
Codec ID                                 : V_MPEG4/ISO/AVC
Duration                                 : 23mn 35s
Bit rate                                 : 1 591 Kbps
Width                                    : 768 pixels
Height                                   : 432 pixels
Display aspect ratio                     : 16:9
Frame rate mode                          : Constant
Frame rate                               : 25.000 fps
Color space                              : YUV
Chroma subsampling                       : 4:2:0
Bit depth                                : 8 bits
Scan type                                : Progressive
Bits/(Pixel*Frame)                       : 0.192
Stream size                              : 261 MiB (66%)
Writing library                          : x264 core 58 svn-736bm
Encoding settings                        : cabac=1 / ref=1 / deblock=1:0:0 / analyse=0x1:0x131 / me=hex / subme=5 / brdo=0 / mixed_ref=0 / me_range=16 / chroma_me=1 / trellis=1 / 8x8dct=0 / cqm=0 / deadzone=21,11 / chroma_qp_offset=0 / threads=2 / nr=0 / decimate=1 / mbaff=0 / bframes=2 / b_pyramid=0 / b_adapt=1 / b_bias=0 / direct=1 / wpredb=1 / bime=0 / keyint=250 / keyint_min=25 / scenecut=40(pre) / rc=2pass / bitrate=1591 / ratetol=1.0 / rceq='blurCplx^(1-qComp)' / qcomp=0.60 / qpmin=10 / qpmax=51 / qpstep=4 / cplxblur=20.0 / qblur=0.5 / ip_ratio=1.40 / pb_ratio=1.30
Language                                 : German
Default                                  : Yes
Forced                                   : No

Audio #1
ID                                       : 2
Format                                   : AC-3
Format/Info                              : Audio Coding 3
Format profile                           : Dolby Digital
Mode extension                           : CM (complete main)
Format settings, Endianness              : Big
Codec ID                                 : A_AC3
Duration                                 : 23mn 35s
Bit rate mode                            : Constant
Bit rate                                 : 384 Kbps
Channel(s)                               : 2 channels
Channel positions                        : Front: L R
Sampling rate                            : 48.0 KHz
Compression mode                         : Lossy
Stream size                              : 64.8 MiB (16%)
Title                                    : AC3 2.0
Language                                 : German
Default                                  : Yes
Forced                                   : No

Audio #2
ID                                       : 3
Format                                   : AC-3
Format/Info                              : Audio Coding 3
Format profile                           : Dolby Digital
Mode extension                           : CM (complete main)
Format settings, Endianness              : Big
Codec ID                                 : A_AC3
Duration                                 : 23mn 35s
Bit rate mode                            : Constant
Bit rate                                 : 384 Kbps
Channel(s)                               : 2 channels
Channel positions                        : Front: L R
Sampling rate                            : 48.0 KHz
Compression mode                         : Lossy
Stream size                              : 64.8 MiB (16%)
Title                                    : AC3 2.0
Language                                 : Japanese
Default                                  : No
Forced                                   : No

Text
ID                                       : 4
Format                                   : VobSub
Muxing mode                              : zlib
Codec ID                                 : S_VOBSUB
Codec ID/Info                            : Picture based subtitle format used on DVDs
Title                                    : Full
Language                                 : German
Default                                  : No
Forced                                   : No

Menu

Beschreibung:
Hack.SIGN.2002.Complete.German.DL.DVDRip.x264-AST4u
Das Onlinespiel "The World" zieht Millionen Spieler in seinen Bann, die Stunden oder gar Tage mit dem Spiel verbringen. Ein Ereignis jedoch bringt Chaos in die wohlgeordnete virtuelle Welt: Ein Spieler namens Tsukasa kann sich nicht mehr aus "The World" ausloggen und seine ungewöhnlichen Fähigkeiten stören das Spiel erheblich. Einige andere werden auf die Person aufmerksam, die fähig ist, Dinge zu tun, die sonst keiner zustandebringt. Sie versuchen schließlich ihm zu helfen. Im Laufe ihrer Suche entdecken sie nach und nach, dass "The World" einige Geheimnisse birgt und dass Tsukasas Fähigkeiten in Verbindung mit einem mystischen Gegenstand in der Welt des Spiels stehen könnte - dem legendären Schlüssel der Dämmerung ... Episoden: 26
Direct Download Links | DDL-Links

Ähnliche Releases der Kategorie