Hardcore.2015.German.AC3MD.TS.XviD-iNTERFilm

22. April 2016 von
Hardcore.2015.German.AC3MD.TS.XviD-iNTERFilm Warez-World
Aufrufe: 22 Hits
Vote 4 Us
Release:
Hardcore TS
Genre:
Action
Laufzeit:
90 Min.
Größe:
1164 MB
Passwort:
Warez-World.org
Sprachen:
Video Codec:
MPEG-4 DivX / Xvid
Audio Stream:
Mic
Bewertung:
Video Vorschau:
Online Stream:
Info:
Zeige NFOVerberge NFO
General
Format                                   : AVI
Format/Info                              : Audio Video Interleave
Format profile                           : OpenDML
Format settings                          : rec
File size                                : 1.14 GiB
Duration                                 : 1h 29mn
Overall bit rate                         : 1 826 Kbps
Writing application                      : AVI-Mux GUI 1.17.8.3, Feb 16 201019:42:50

Video
ID                                       : 0
Format                                   : xvid
Codec ID                                 : xvid
Duration                                 : 1h 29mn
Bit rate                                 : 1 500 Kbps
Width                                    : 720 pixels
Height                                   : 400 pixels
Display aspect ratio                     : 16:9
Frame rate                               : 29.970 fps
Bits/(Pixel*Frame)                       : 0.174
Stream size                              : 956 MiB (82%)

Audio #1
ID                                       : 1
Format                                   : AC-3
Format/Info                              : Audio Coding 3
Mode extension                           : CM (complete main)
Format settings, Endianness              : Big
Codec ID                                 : 2000
Duration                                 : 1h 29mn
Bit rate mode                            : Constant
Bit rate                                 : 192 Kbps
Channel(s)                               : 2 channels
Channel positions                        : Front: L R
Sampling rate                            : 48.0 KHz
Compression mode                         : Lossy
Stream size                              : 122 MiB (11%)
Alignment                                : Aligned on interleaves
Interleave, duration                     : 64 ms (1.92 video frames)
Interleave, preload duration             : 192 ms
Title                                    : mp-hardcore-xtsmd

Audio #2
ID                                       : 2
Format                                   : MPEG Audio
Format version                           : Version 1
Format profile                           : Layer 3
Mode                                     : Joint stereo
Mode extension                           : MS Stereo
Codec ID                                 : 55
Codec ID/Hint                            : MP3
Duration                                 : 1h 29mn
Bit rate mode                            : Constant
Bit rate                                 : 128 Kbps
Channel(s)                               : 2 channels
Sampling rate                            : 44.1 KHz
Compression mode                         : Lossy
Stream size                              : 81.6 MiB (7%)
Alignment                                : Aligned on interleaves
Interleave, duration                     : 470 ms (14.08 video frames)
Interleave, preload duration             : 208 ms

Beschreibung:
Hardcore.2015.German.AC3MD.TS.XviD-iNTERFilm
Eben noch auf der Schwelle zwischen Leben und Tod, im nächsten Moment als kybernetisch aufgemotzte Kampfmaschine auf der Suche nach der eigenen Identität und den Entführern seiner Frau Estelle: Für Henry kommt es im futuristischen Moskau hammerhart. Lediglich unterstützt durch den schrägen Jimmy, muss er es nicht nur mit Heerscharen namenloser Söldner aufnehmen, sondern auch deren psychopathischen Boss Akan in die Schranken weisen, der eine Armee biotechnisch aufgerüsteter Soldaten produzieren will. Getreu dem Motto "Blut schlucken und schlucken lassen" bleibt Stehaufmännchen Henry nichts anderes übrig, als bis zum finalen "Game Over" auch den letzten der "Scheißkerle" endgültig plattzumachen.
Direct Download Links | DDL-Links

Ähnliche Releases der Kategorie