Hardcore.2016.GERMAN.HQTS.AC3.MiC.DUBBED.XViD-GOT

22. April 2016 von
Hardcore.2016.GERMAN.HQTS.AC3.MiC.DUBBED.XViD-GOT Warez-World
Aufrufe: 49 Hits
Vote 4 Us
Release:
Hardcore TS
Genre:
Action
Laufzeit:
94 Min.
Größe:
1789 MB
Passwort:
Warez-World.org
Sprachen:
Video Codec:
MPEG-4 DivX / Xvid
Audio Stream:
Mic
Bewertung:
Video Vorschau:
Online Stream:
Info:
Zeige NFOVerberge NFO
General
Format                                   : AVI
Format/Info                              : Audio Video Interleave
Format profile                           : OpenDML
File size                                : 1.75 GiB
Duration                                 : 1h 29mn
Overall bit rate                         : 2 806 Kbps
Writing application                      : Lavf57.31.100

Video
ID                                       : 0
Format                                   : MPEG-4 Visual
Format settings, BVOP                    : No
Format settings, QPel                    : No
Format settings, GMC                     : No warppoints
Format settings, Matrix                  : Default (H.263)
Codec ID                                 : XVID
Codec ID/Hint                            : XviD
Duration                                 : 1h 29mn
Bit rate                                 : 2 601 Kbps
Width                                    : 720 pixels
Height                                   : 406 pixels
Display aspect ratio                     : 16:9
Frame rate                               : 29.970 fps
Color space                              : YUV
Chroma subsampling                       : 4:2:0
Bit depth                                : 8 bits
Scan type                                : Progressive
Compression mode                         : Lossy
Bits/(Pixel*Frame)                       : 0.297
Stream size                              : 1.62 GiB (93%)
Writing library                          : XviD 67

Audio
ID                                       : 1
Format                                   : AC-3
Format/Info                              : Audio Coding 3
Mode extension                           : CM (complete main)
Format settings, Endianness              : Big
Codec ID                                 : 2000
Duration                                 : 1h 29mn
Bit rate mode                            : Constant
Bit rate                                 : 192 Kbps
Channel(s)                               : 2 channels
Channel positions                        : Front: L R
Sampling rate                            : 48.0 KHz
Bit depth                                : 16 bits
Compression mode                         : Lossy
Stream size                              : 122 MiB (7%)
Alignment                                : Aligned on interleaves
Interleave, duration                     : 32 ms (0.96 video frame)
Interleave, preload duration             : 64 ms

Beschreibung:
Hardcore.2016.GERMAN.HQTS.AC3.MiC.DUBBED.XViD-GOT
Das Moskau der Zukunft: Henry stand an der Schwelle zwischen Leben und Tod, seine Frau Estelle (Haley Bennett) wurde entführt und er hat keine Ahnung, wer genau er eigentlich ist – jetzt, wo er frisch in eine kybernetische Kampfmaschine umfunktioniert wurde. Immerhin hat er so die passenden Fähigkeiten, es mit dem psychopathischen Söldnerboss Akan (Danila Kozlovsky) aufzunehmen, der massig seiner Soldaten auf Henry hetzt und große Pläne verfolgt: die Produktion einer Armee biotechnisch aufgerüsteter Soldaten. Gut, dass Henry den schrägen Jimmy (Sharlto Copley) an seiner Seite weiß. Gemeinsam stürzt man sich in den wilden Kampf, in dem Henry ordentlich austeilt und auch echte Nehmerqualitäten beweist. Wieder und wieder rappelt er sich auf, bis auch der wirklich letzte Gegner plattgemacht ist…
Direct Download Links | DDL-Links

Ähnliche Releases der Kategorie