Hardcore.German.2015.AC3MD.TS.XVID-OMS

22. April 2016 von
Hardcore.German.2015.AC3MD.TS.XVID-OMS Warez-World
Aufrufe: 48 Hits
Vote 4 Us
Release:
Hardcore TS
Genre:
Action
Laufzeit:
90 Min.
Größe:
1289 MB
Passwort:
Warez-World.org
Sprachen:
Video Codec:
MPEG-4 DivX / Xvid
Audio Stream:
Mic
Bewertung:
Video Vorschau:
Online Stream:
Info:
Zeige NFOVerberge NFO
General
Format                                   : AVI
Format/Info                              : Audio Video Interleave
File size                                : 14.1 MiB
Duration                                 : 1mn 5s
Overall bit rate                         : 1 818 Kbps
Movie name                               : Hardcore.German.2015.AC3MD.TS.XVID-OMS
Genre                                    : Action
Recorded date                            : 2015
Writing application                      : Lavf57.0.100

Video
ID                                       : 0
Format                                   : MPEG-4 Visual
Format settings, BVOP                    : No
Format settings, QPel                    : No
Format settings, GMC                     : No warppoints
Format settings, Matrix                  : Default (H.263)
Codec ID                                 : DIVX
Codec ID/Info                            : Project Mayo
Codec ID/Hint                            : DivX 4
Duration                                 : 1mn 5s
Bit rate                                 : 1 614 Kbps
Width                                    : 720 pixels
Height                                   : 400 pixels
Display aspect ratio                     : 16:9
Frame rate                               : 24.000 fps
Color space                              : YUV
Chroma subsampling                       : 4:2:0
Bit depth                                : 8 bits
Scan type                                : Progressive
Compression mode                         : Lossy
Bits/(Pixel*Frame)                       : 0.234
Stream size                              : 12.5 MiB (89%)
Writing library                          : XviD 67

Audio
ID                                       : 1
Format                                   : AC-3
Format/Info                              : Audio Coding 3
Mode extension                           : CM (complete main)
Format settings, Endianness              : Big
Codec ID                                 : 2000
Duration                                 : 1mn 5s
Bit rate mode                            : Constant
Bit rate                                 : 192 Kbps
Channel(s)                               : 2 channels
Channel positions                        : Front: L R
Sampling rate                            : 48.0 KHz
Bit depth                                : 16 bits
Compression mode                         : Lossy
Stream size                              : 1.49 MiB (11%)
Alignment                                : Aligned on interleaves
Interleave, duration                     : 32 ms (0.77 video frame)
Interleave, preload duration             : 7840 ms
Language                                 : German

Beschreibung:
Hardcore.German.2015.AC3MD.TS.XVID-OMS
Eben noch auf der Schwelle zwischen Leben und Tod, im nächsten Moment als kybernetisch aufgemotzte Kampfmaschine auf der Suche nach der eigenen Identität und den Entführern seiner Frau Estelle: Für Henry kommt es im futuristischen Moskau hammerhart. Lediglich unterstützt durch den schrägen Jimmy, muss er es nicht nur mit Heerscharen namenloser Söldner aufnehmen, sondern auch deren psychopathischen Boss Akan in die Schranken weisen, der eine Armee biotechnisch aufgerüsteter Soldaten produzieren will. Getreu dem Motto "Blut schlucken und schlucken lassen" bleibt Stehaufmännchen Henry nichts anderes übrig, als bis zum finalen "Game Over" auch den letzten der "Scheißkerle" endgültig plattzumachen.
Direct Download Links | DDL-Links

Ähnliche Releases der Kategorie