Hardcore.Henry.2015.720p.HDRip.KORSUB.XviD.MP3-STUTTERSHIT

27. Mai 2016 von
Hardcore.Henry.2015.720p.HDRip.KORSUB.XviD.MP3-STUTTERSHIT Warez-World
Aufrufe: 65 Hits
Vote 4 Us
Release:
Hardcore Henry BD-RIP
Genre:
Action
Laufzeit:
94 Min.
Größe:
2675 MB
Passwort:
Warez-World.org
Sprachen:
Video Codec:
MPEG-4 DivX / Xvid
Audio Stream:
Dolby Digital 5.1
Bewertung:
Video Vorschau:
Online Stream:
Info:
Zeige NFOVerberge NFO
[mediainfo]
Video
ID                                       : 0
Format                                   : MPEG-4 Visual
Format profile                           : Simple@L5
Format settings, BVOP                    : No
Format settings, QPel                    : No
Format settings, GMC                     : No warppoints
Format settings, Matrix                  : Default (H.263)
Codec ID                                 : XVID
Codec ID/Hint                            : XviD
Duration                                 : 1h 36mn
Bit rate                                 : 3 672 Kbps
Width                                    : 1 280 pixels
Height                                   : 720 pixels
Display aspect ratio                     : 16:9
Frame rate                               : 29.970 fps
Color space                              : YUV
Chroma subsampling                       : 4:2:0
Bit depth                                : 8 bits
Scan type                                : Progressive
Compression mode                         : Lossy
Bits/(Pixel*Frame)                       : 0.133
Stream size                              : 2.47 GiB (95%)
Writing library                          : Lavc56.13.100

Audio
ID                                       : 1
Format                                   : MPEG Audio
Format version                           : Version 1
Format profile                           : Layer 3
Mode                                     : Joint stereo
Mode extension                           : MS Stereo
Codec ID                                 : 55
Codec ID/Hint                            : MP3
Duration                                 : 1h 36mn
Bit rate mode                            : Constant
Bit rate                                 : 192 Kbps
Channel(s)                               : 2 channels
Sampling rate                            : 44.1 KHz
Compression mode                         : Lossy
Stream size                              : 132 MiB (5%)
Alignment                                : Aligned on interleaves
Interleave, duration                     : 26 ms (0.78 video frame)
Interleave, preload duration             : 522 ms
Writing library                          : LAME3.99.5



[/mediainfo]
Beschreibung:
Hardcore.Henry.2015.720p.HDRip.KORSUB.XviD.MP3-STUTTERSHIT
Eben noch auf der Schwelle zwischen Leben und Tod, im nächsten Moment als kybernetisch aufgemotzte Kampfmaschine auf der Suche nach der eigenen Identität und den Entführern seiner Frau Estelle: Für Henry kommt es im futuristischen Moskau hammerhart. Lediglich unterstützt durch den schrägen Jimmy, muss er es nicht nur mit Heerscharen namenloser Söldner aufnehmen, sondern auch deren psychopathischen Boss Akan in die Schranken weisen, der eine Armee biotechnisch aufgerüsteter Soldaten produzieren will. Getreu dem Motto "Blut schlucken und schlucken lassen" bleibt Stehaufmännchen Henry nichts anderes übrig, als bis zum finalen "Game Over" auch den letzten der "Scheißkerle" endgültig plattzumachen.
Direct Download Links | DDL-Links

Ähnliche Releases der Kategorie