Hardcore.Henry.2015.HDRip.KORSUB.x264-STUTTERSHIT

27. Mai 2016 von
Hardcore.Henry.2015.HDRip.KORSUB.x264-STUTTERSHIT Warez-World
Aufrufe: 313 Hits
Vote 4 Us
Release:
Hardcore Henry BD-RIP
Genre:
Action
Laufzeit:
94 Min.
Größe:
834 MB
Passwort:
Warez-World.org
Sprachen:
Video Codec:
MPEG-4 H.264 / AVC
Audio Stream:
Dolby Digital 5.1
Bewertung:
Video Vorschau:
Online Stream:
Info:
Zeige NFOVerberge NFO
[URL=http://imagecurl.com/viewer.php?file=08890752707137494982.png][IMG]http://imagecurl.com/images/08890752707137494982_thumb.png[/IMG][/URL]
[URL=http://imagecurl.com/viewer.php?file=74059629699112376519.png][IMG]http://imagecurl.com/images/74059629699112376519_thumb.png[/IMG][/URL]
[URL=http://imagecurl.com/viewer.php?file=25072089135651660393.png][IMG]http://imagecurl.com/images/25072089135651660393_thumb.png[/IMG][/URL]
[URL=http://imagecurl.com/viewer.php?file=20002774524047891602.png][IMG]http://imagecurl.com/images/20002774524047891602_thumb.png[/IMG][/URL]
[URL=http://imagecurl.com/viewer.php?file=43127611870492675262.png][IMG]http://imagecurl.com/images/43127611870492675262_thumb.png[/IMG][/URL]
[URL=http://imagecurl.com/viewer.php?file=88025721838687567747.png][IMG]http://imagecurl.com/images/88025721838687567747_thumb.png[/IMG][/URL]



[mediainfo]
Video
ID                                       : 1
Format                                   : AVC
Format/Info                              : Advanced Video Codec
Format profile                           : High@L3.1
Format settings, CABAC                   : Yes
Format settings, ReFrames                : 5 frames
Codec ID                                 : avc1
Codec ID/Info                            : Advanced Video Coding
Duration                                 : 1h 36mn
Bit rate                                 : 1 100 Kbps
Width                                    : 720 pixels
Height                                   : 400 pixels
Display aspect ratio                     : 16:9
Frame rate mode                          : Constant
Frame rate                               : 29.970 fps
Color space                              : YUV
Chroma subsampling                       : 4:2:0
Bit depth                                : 8 bits
Scan type                                : Progressive
Bits/(Pixel*Frame)                       : 0.127
Stream size                              : 740 MiB (89%)
Title                                    : Hardcore.Henry.2015.HDRip.KORSUB.x264-STUTTERSHIT
Writing library                          : x264 core 148 r2601 a0cd7d3
Encoding settings                        : cabac=1 / ref=5 / deblock=1:-2:-2 / analyse=0x3:0x113 / me=umh / subme=8 / psy=1 / psy_rd=0.90:0.00 / mixed_ref=1 / me_range=16 / chroma_me=1 / trellis=1 / 8x8dct=1 / cqm=0 / deadzone=21,11 / fast_pskip=1 / chroma_qp_offset=-2 / threads=8 / lookahead_threads=2 / sliced_threads=0 / nr=0 / decimate=1 / interlaced=0 / bluray_compat=0 / constrained_intra=0 / bframes=3 / b_pyramid=2 / b_adapt=2 / b_bias=0 / direct=3 / weightb=1 / open_gop=0 / weightp=2 / keyint=250 / keyint_min=25 / scenecut=40 / intra_refresh=0 / rc_lookahead=50 / rc=abr / mbtree=1 / bitrate=1100 / ratetol=1.0 / qcomp=0.60 / qpmin=0 / qpmax=69 / qpstep=4 / vbv_maxrate=31250 / vbv_bufsize=31250 / nal_hrd=none / filler=0 / ip_ratio=1.40 / aq=1:1.00

Audio
ID                                       : 2
Format                                   : AAC
Format/Info                              : Advanced Audio Codec
Format profile                           : LC
Codec ID                                 : 40
Duration                                 : 1h 36mn
Bit rate mode                            : Variable
Bit rate                                 : 128 Kbps
Maximum bit rate                         : 31.3 Mbps
Channel(s)                               : 2 channels
Channel positions                        : Front: L R
Sampling rate                            : 44.1 KHz
Frame rate                               : 43.066 fps (1024 spf)
Compression mode                         : Lossy
Stream size                              : 88.3 MiB (11%)
Title                                    : Hardcore.Henry.2015.HDRip.KORSUB.x264-STUTTERSHIT
Default                                  : Yes
Alternate group                          : 1



[/mediainfo]
Beschreibung:
Hardcore.Henry.2015.HDRip.KORSUB.x264-STUTTERSHIT
Eben noch auf der Schwelle zwischen Leben und Tod, im nächsten Moment als kybernetisch aufgemotzte Kampfmaschine auf der Suche nach der eigenen Identität und den Entführern seiner Frau Estelle: Für Henry kommt es im futuristischen Moskau hammerhart. Lediglich unterstützt durch den schrägen Jimmy, muss er es nicht nur mit Heerscharen namenloser Söldner aufnehmen, sondern auch deren psychopathischen Boss Akan in die Schranken weisen, der eine Armee biotechnisch aufgerüsteter Soldaten produzieren will. Getreu dem Motto "Blut schlucken und schlucken lassen" bleibt Stehaufmännchen Henry nichts anderes übrig, als bis zum finalen "Game Over" auch den letzten der "Scheißkerle" endgültig plattzumachen.
Direct Download Links | DDL-Links

Ähnliche Releases der Kategorie