The.Hateful.Eight.2015.German.DTS.1080p.x264-MrP

26. Mai 2016 von
The.Hateful.Eight.2015.German.DTS.1080p.x264-MrP Warez-World
Aufrufe: 119 Hits
Vote 4 Us
Release:
The Hateful Eight BD-RIP
Genre:
Drama
Laufzeit:
168 Min.
Größe:
13173 MB
Passwort:
Warez-World.org
Sprachen:
Video Codec:
MPEG-4 H.264 / AVC
Audio Stream:
DTS 5.1
Bewertung:
Video Vorschau:
Online Stream:
Info:
Zeige NFOVerberge NFO
General
Unique ID: 202764496164681507670022469354235428090 (0x988B057FDBC347B890CE9A4C1D20FCFA)
Complete name: F:The.Hateful.Eight.2015.German.DTS.1080p.x264-MrPThe.Hateful.Eight.2015.German.DTS.1080p.x264-MrP.mkv
Format: Matroska
Format version: Version 4 / Version 2
File size: 12.8 GiB
Duration: 2h 47mn
Overall bit rate: 10.9 Mbps
Encoded date: UTC 2016-05-24 14:29:19
Writing application: mkvmerge v8.2.0 (World of Adventure) 64bit
Writing library: libebml v1.3.1 + libmatroska v1.4.2
DURATION: 02:41:25.666000000
NUMBER_OF_FRAMES: 2448
NUMBER_OF_BYTES: 74621
_STATISTICS_WRITING_APP: mkvmerge v8.2.0 (World of Adventure) 64bit
_STATISTICS_WRITING_DATE_UTC: 2016-05-24 14:29:19
_STATISTICS_TAGS: BPS DURATION NUMBER_OF_FRAMES NUMBER_OF_BYTES

Video
ID: 1
Format: AVC
Format/Info: Advanced Video Codec
Format profile: High@L4.1
Format settings, CABAC: Yes
Format settings, ReFrames: 6 frames
Codec ID: V_MPEG4/ISO/AVC
Duration: 2h 47mn
Bit rate: 9 927 Kbps
Width: 1 920 pixels
Height: 698 pixels
Display aspect ratio: 2.751
Frame rate mode: Constant
Frame rate: 24.000 fps
Original frame rate: 23.976 fps
Color space: YUV
Chroma subsampling: 4:2:0
Bit depth: 8 bits
Scan type: Progressive
Bits/(Pixel*Frame): 0.309
Stream size: 11.6 GiB (91)
Writing library: x264 core 148 r2638kMod 7599210
Encoding settings: cabac=1 / ref=6 / deblock=1:-3:-3 / analyse=0x3:0x133 / me=umh / subme=10 / psy=1
/ fade_compensate=0.00 / psy_rd=1.12:0.00 / mixed_ref=1 / me_range=48 / chroma_me=1 / trellis=2 /
8x8dct=1 / cqm=0 / deadzone=21,11 / fast_pskip=1 / chroma_qp_offset=-2 / threads=12 /
lookahead_threads=2 / sliced_threads=0 / nr=0 / decimate=1 / interlaced=0 / bluray_compat=0 /
constrained_intra=0 / fgo=0 / bframes=8 / b_pyramid=2 / b_adapt=2 / b_bias=0 / direct=3 / weightb=1
/ open_gop=0 / weightp=2 / keyint=250 / keyint_min=23 / scenecut=40 / intra_refresh=0 / rc=crf /
mbtree=0 / crf=15.5000 / qcomp=0.60 / qpmin=0 / qpmax=69 / qpstep=4 / ip_ratio=1.30 / pb_ratio=1.20
/ aq=3:0.70
Language: English
Default: Yes
Forced: No
DURATION: 02:47:35.625000000
NUMBER_OF_FRAMES: 241335
NUMBER_OF_BYTES: 12747569269
_STATISTICS_WRITING_APP: mkvmerge v8.2.0 (World of Adventure) 64bit
_STATISTICS_WRITING_DATE_UTC: 2016-05-24 14:29:19
_STATISTICS_TAGS: BPS DURATION NUMBER_OF_FRAMES NUMBER_OF_BYTES

Audio
ID: 2
Format: DTS
Format/Info: Digital Theater Systems
Mode: 16
Format settings, Endianness: Big
Codec ID: A_DTS
Duration: 2h 47mn
Bit rate mode: Constant
Bit rate: 768 Kbps
Channel(s): 6 channels
Channel positions: Front: L C R, Side: L R, LFE
Sampling rate: 48.0 KHz
Bit depth: 24 bits
Compression mode: Lossy
Delay relative to video: 10ms
Stream size: 921 MiB (7)
Title: GERMAN DTS 755
Language: German
Default: Yes
Forced: No

Text #1
ID: 3
Format: UTF-8
Codec ID: S_TEXT/UTF8
Codec ID/Info: UTF-8 Plain Text
Title: GERMAN FORCED
Language: German
Default: Yes
Forced: Yes

Text #2
ID: 4
Format: UTF-8
Codec ID: S_TEXT/UTF8
Codec ID/Info: UTF-8 Plain Text
Title: GERMAN SUBS
Language: German
Default: No
Forced: No

Menu
00:00:00.000: en:00:00:00.000
00:04:33.523: en:00:04:33.523
00:11:36.112: en:00:11:36.112
00:22:01.362: en:00:22:01.362
00:35:02.434: en:00:35:02.434
00:43:31.901: en:00:43:31.901
00:52:12.212: en:00:52:12.212
00:59:04.499: en:00:59:04.499
01:08:30.315: en:01:08:30.315
01:16:10.858: en:01:16:10.858
01:25:18.447: en:01:25:18.447
01:35:06.492: en:01:35:06.492
01:42:20.176: en:01:42:20.176
01:50:33.335: en:01:50:33.335
01:59:32.499: en:01:59:32.499
02:06:43.054: en:02:06:43.054
02:13:26.624: en:02:13:26.624
02:19:59.725: en:02:19:59.725
02:24:17.023: en:02:24:17.023
02:34:08.114: en:02:34:08.114
02:39:38.027: en:02:39:38.027
02:43:22.751: en:02:43:22.751
Beschreibung:
The.Hateful.Eight.2015.German.DTS.1080p.x264-MrP
Wyoming, einige Jahre nach dem amerikanischen Bürgerkrieg: Eine Kutsche bahnt sich mühsam ihren Weg durch den Schnee in Richtung der Stadt Red Rock. An Bord befinden sich der Kopfgeldjäger John "The Hangman" Ruth, dessen Gefangene Daisy Domergue sowie der Anhalter Major Marquis Warren, der früher Soldat war und nun ebenfalls als Kopfgeldjäger sein Geld verdient, und Chris Mannix, ein Deserteur aus den Südstaaten, der behauptet, der neue Sheriff der Stadt zu sein. Ein Schneesturm zwingt die Gruppe zu einem Zwischenstopp in Minnies Kleinwarenladen. Sie treffen dort zwar nicht auf Minnie aber dafür auf den mysteriösen Mexikaner Bon, auf den verschwiegenen Cowboy Joe Gage, auf den Konföderierten-General Sandford Smithers sowie auf Oswaldo Mobray. Während der Sturm draußen immer heftiger tobt, begreifen die acht Fremden, dass ihr Zusammentreffen vielleicht gar nicht so zufällig ist und sie Red Rock möglicherweise nie erreichen werden...
Direct Download Links | DDL-Links

Ähnliche Releases der Kategorie