Highway.to.Hellas.2015.German.AC3.BDRiP.XviD-FIJ

30. März 2016 von
Highway.to.Hellas.2015.German.AC3.BDRiP.XviD-FIJ Warez-World
Aufrufe: 44 Hits
Vote 4 Us
Release:
Highway to Hellas BD-RIP
Genre:
Comedy
Laufzeit:
89 Min.
Größe:
1403 MB
Passwort:
Warez-World.org
Sprachen:
Video Codec:
MPEG-4 DivX / Xvid
Audio Stream:
Dolby Digital 5.1
Bewertung:
Video Vorschau:
Online Stream:
Info:
Zeige NFOVerberge NFO
General
Format                                   : AVI
Format/Info                              : Audio Video Interleave
File size                                : 1.37 GiB
Duration                                 : 1h 28mn
Overall bit rate                         : 2 205 Kbps
Writing application                      : VirtualDubModRus 1.5.10.2 (build 2540/release)
Writing library                          : VirtualDubMod build 2540/release

Video
ID                                       : 0
Format                                   : MPEG-4 Visual
Format settings, BVOP                    : No
Format settings, QPel                    : No
Format settings, GMC                     : No warppoints
Format settings, Matrix                  : Default (H.263)
Codec ID                                 : XVID
Codec ID/Hint                            : XviD
Duration                                 : 1h 28mn
Bit rate                                 : 1 748 Kbps
Width                                    : 720 pixels
Height                                   : 304 pixels
Display aspect ratio                     : 2.35:1
Frame rate                               : 23.976 fps
Color space                              : YUV
Chroma subsampling                       : 4:2:0
Bit depth                                : 8 bits
Scan type                                : Progressive
Compression mode                         : Lossy
Bits/(Pixel*Frame)                       : 0.333
Stream size                              : 1.09 GiB (79%)
Writing library                          : XviD 64

Audio
ID                                       : 1
Format                                   : AC-3
Format/Info                              : Audio Coding 3
Mode extension                           : CM (complete main)
Format settings, Endianness              : Big
Codec ID                                 : 2000
Duration                                 : 1h 28mn
Bit rate mode                            : Constant
Bit rate                                 : 448 Kbps
Channel(s)                               : 6 channels
Channel positions                        : Front: L C R, Side: L R, LFE
Sampling rate                            : 48.0 KHz
Compression mode                         : Lossy
Stream size                              : 285 MiB (20%)
Alignment                                : Split accross interleaves
Interleave, duration                     : 42 ms (1.00 video frame)
Interleave, preload duration             : 500 ms

Beschreibung:
Highway.to.Hellas.2015.German.AC3.BDRiP.XviD-FIJ
Die Deutschen kommen! Jörg Geissner taucht überraschend auf der kleinen, griechischen Insel Paladiki auf. Seine Aufgabe ist es nachzuforschen, ob für vor langer Zeit gewährte Kredite tatsächlich die seinerzeit angegebenen Sicherheiten bestehen. Natürlich haben die Inselbewohner, angeführt von dem Supermarktbesitzer Panos, etwas dagegen und setzen nun gemeinschaftlich alles daran, Geissners Suche so schwer wie möglich zu gestalten. Es folgen ereignisreiche Tage auf Paladiki. Voller Schikane schicken die Griechen Geissner quer über die Insel und machen ihm sein Leben zu wahren Hölle. Doch wo anfangs Misstrauen und Vorurteile waren, entsteht so langsam die Erkenntnis, dass man doch so unterschiedlich gar nicht ist...
Direct Download Links | DDL-Links

Ähnliche Releases der Kategorie