The.Huntsman.and.the.Ice.Queen.EXTENDED.2016.German.DTS.DL.720p.BluRay.x264-KW

7. August 2016 von
The.Huntsman.and.the.Ice.Queen.EXTENDED.2016.German.DTS.DL.720p.BluRay.x264-KW Warez-World
Aufrufe: 55 Hits
Vote 4 Us
Release:
The Huntsman and the Ice Queen EXTENDED BD
Genre:
Adventure
Größe:
4273 MB
Passwort:
Warez-World.org
Sprachen:
Video Codec:
MPEG-4 H.264 / AVC
Audio Stream:
Dolby Digital 5.1
Bewertung:
Video Vorschau:
Online Stream:
Info:
Zeige NFOVerberge NFO
General
Unique ID                                : 243602835044440805714043893887172672097 (0xB744330F7B22B3CB92AB492F42C4FA61)
Complete name                            : F:MoviesThe Huntsman and the Ice Queen EXTENDED 2016 German DTS DL 720p BluRay x264-KWThe.Huntsman.and.the.Ice.Queen.EXTENDED.2016.German.DTS.DL.720p.BluRay.x264-KWkw-huntsmice.72.mkv
Format                                   : Matroska
Format version                           : Version 4 / Version 2
File size                                : 4.31 GiB
Duration                                 : 2h 0mn
Overall bit rate                         : 5 140 Kbps
Encoded date                             : UTC 2016-08-05 23:23:19
Writing application                      : mkvmerge v8.3.0 ('Over the Horizon') 64bit
Writing library                          : libebml v1.3.1 + libmatroska v1.4.2
DURATION                                 : 01:58:37.818000000
NUMBER_OF_FRAMES                         : 4
NUMBER_OF_BYTES                          : 86
_STATISTICS_WRITING_APP                  : mkvmerge v8.3.0 ('Over the Horizon') 64bit
_STATISTICS_WRITING_DATE_UTC             : 2016-08-05 23:23:19
_STATISTICS_TAGS                         : BPS DURATION NUMBER_OF_FRAMES NUMBER_OF_BYTES

Video
ID                                       : 1
Format                                   : AVC
Format/Info                              : Advanced Video Codec
Format profile                           : High@L4.1
Format settings, CABAC                   : Yes
Format settings, ReFrames                : 5 frames
Codec ID                                 : V_MPEG4/ISO/AVC
Duration                                 : 2h 0mn
Bit rate                                 : 2 020 Kbps
Width                                    : 1 280 pixels
Height                                   : 536 pixels
Display aspect ratio                     : 2.40:1
Frame rate mode                          : Constant
Frame rate                               : 23.976 fps
Color space                              : YUV
Chroma subsampling                       : 4:2:0
Bit depth                                : 8 bits
Scan type                                : Progressive
Bits/(Pixel*Frame)                       : 0.123
Stream size                              : 1.70 GiB (39%)
Writing library                          : x264 core 148 r2705 3f5ed56
Encoding settings                        : cabac=1 / ref=5 / deblock=1:-2:-2 / analyse=0x3:0x133 / me=umh / subme=7 / psy=1 / psy_rd=1.10:0.00 / mixed_ref=1 / me_range=16 / chroma_me=1 / trellis=1 / 8x8dct=1 / cqm=0 / deadzone=21,11 / fast_pskip=0 / chroma_qp_offset=-2 / threads=17 / lookahead_threads=2 / sliced_threads=0 / nr=0 / decimate=1 / interlaced=0 / bluray_compat=0 / constrained_intra=0 / bframes=3 / b_pyramid=2 / b_adapt=1 / b_bias=0 / direct=3 / weightb=1 / open_gop=0 / weightp=2 / keyint=240 / keyint_min=23 / scenecut=40 / intra_refresh=0 / rc_lookahead=50 / rc=crf / mbtree=1 / crf=20.0 / qcomp=0.60 / qpmin=10 / qpmax=51 / qpstep=4 / ip_ratio=1.40 / aq=1:1.00
Language                                 : English
Default                                  : Yes
Forced                                   : No
DURATION                                 : 02:00:10.204000000
NUMBER_OF_FRAMES                         : 172872
NUMBER_OF_BYTES                          : 1910028491
_STATISTICS_WRITING_APP                  : mkvmerge v8.3.0 ('Over the Horizon') 64bit
_STATISTICS_WRITING_DATE_UTC             : 2016-08-05 23:23:19
_STATISTICS_TAGS                         : BPS DURATION NUMBER_OF_FRAMES NUMBER_OF_BYTES

Audio #1
ID                                       : 2
Format                                   : DTS
Format/Info                              : Digital Theater Systems
Mode                                     : 16
Format settings, Endianness              : Big
Codec ID                                 : A_DTS
Duration                                 : 2h 0mn
Bit rate mode                            : Constant
Bit rate                                 : 1 509 Kbps
Channel(s)                               : 6 channels
Channel positions                        : Front: L C R, Side: L R, LFE
Sampling rate                            : 48.0 KHz
Bit depth                                : 24 bits
Compression mode                         : Lossy
Stream size                              : 1.27 GiB (29%)
Language                                 : German
Default                                  : Yes
Forced                                   : Yes

Audio #2
ID                                       : 3
Format                                   : DTS
Format/Info                              : Digital Theater Systems
Mode                                     : 16
Format settings, Endianness              : Big
Codec ID                                 : A_DTS
Duration                                 : 2h 0mn
Bit rate mode                            : Constant
Bit rate                                 : 1 509 Kbps
Channel(s)                               : 6 channels
Channel positions                        : Front: L C R, Side: L R, LFE
Sampling rate                            : 48.0 KHz
Bit depth                                : 24 bits
Compression mode                         : Lossy
Stream size                              : 1.27 GiB (29%)
Language                                 : English
Default                                  : No
Forced                                   : No

Text
ID                                       : 4
Format                                   : UTF-8
Codec ID                                 : S_TEXT/UTF8
Codec ID/Info                            : UTF-8 Plain Text
Language                                 : German
Default                                  : Yes
Forced                                   : Yes

Menu
00:00:00.000                             : en:00:00:00.000
00:06:26.428                             : en:00:06:26.428
00:09:26.858                             : en:00:09:26.858
00:15:03.194                             : en:00:15:03.194
00:21:33.501                             : en:00:21:33.501
00:30:17.858                             : en:00:30:17.858
00:36:08.166                             : en:00:36:08.166
00:40:55.661                             : en:00:40:55.661
00:46:56.439                             : en:00:46:56.439
00:52:05.748                             : en:00:52:05.748
00:59:35.530                             : en:00:59:35.530
01:04:23.943                             : en:01:04:23.943
01:11:16.689                             : en:01:11:16.689
01:15:19.223                             : en:01:15:19.223
01:22:42.833                             : en:01:22:42.833
01:28:15.206                             : en:01:28:15.206
01:33:58.007                             : en:01:33:58.007
01:39:21.956                             : en:01:39:21.956
01:48:13.904                             : en:01:48:13.904
01:50:19.571                             : en:01:50:19.571
Beschreibung:
The.Huntsman.and.the.Ice.Queen.EXTENDED.2016.German.DTS.DL.720p.BluRay.x264-KW
In der Fortsetzung des fantastischen Action-Abenteuers Snow White and the Huntsman kreuzen sich erneut die Wege von Huntsman Eric und der Evil Queen Ravenna. Die Geschichte setzt ein, lange bevor die Evil Queen Ravenna durch das Schwert von Snow White in die ewige Verdammnis geschickt wurde. Damals war ihre Schwester, die Ice Queen Freya, durch einen bitteren Verrat, der ihr das Herz brach, gezwungen, das Königreich zu verlassen. Zurückgezogen in einem winterlichen Palast scharte sie über Jahrzehnte hinweg ein Heer von kampfbereiten Huntsmen um sich. Darunter befinden sich auch Eric und die Kriegerin Sara, die der Ice Queen treu ergeben sind. Als sie ihre Gefühle für einander entdecken, brechen sie damit das höchste Gesetz in Freyas Königreich: Du darfst dich nicht verlieben! Als Bestrafung werden beide von der Ice Queen verstoßen. Jahre später wird Ravenna von Snow White in den Magischen Spiegel verbannt. Freya schickt ihre Huntsmen los, um diesen in ihren Besitz zu bringen und ihre Schwester zu retten. Die Evil Queen wird aus den goldenen Tiefen des Spiegels befreit und mit vereinten Kräften bedrohen die Schwestern nun den Frieden des gesamten Königreichs. Ihre böse Armee scheint unbesiegbar zu sein, doch Eric stellt sich ihnen entgegen - und er ist nicht allein.
Direct Download Links | DDL-Links

Ähnliche Releases der Kategorie