Independence.Day.2.Wiederkehr.2016.GERMAN.AC3.LiNE.DUBBED.HC.WEBRiP.x264-GOT

4. August 2016 von
Independence.Day.2.Wiederkehr.2016.GERMAN.AC3.LiNE.DUBBED.HC.WEBRiP.x264-GOT Warez-World
Aufrufe: 71 Hits
Vote 4 Us
Release:
Independence Day 2: Wiederkehr WEB-RIP
Genre:
Action
Laufzeit:
117 Min.
Größe:
1848 MB
Passwort:
Warez-World.org
Sprachen:
Video Codec:
MPEG-4 H.264 / AVC
Audio Stream:
Line
Bewertung:
Video Vorschau:
Online Stream:
Info:
Zeige NFOVerberge NFO
General
Format                                   : Matroska
Format version                           : Version 4 / Version 2
File size                                : 1.80 GiB
Duration                                 : 1h 59mn
Overall bit rate                         : 2 168 Kbps
Encoded date                             : UTC 2016-07-29 11:21:06
Writing application                      : Lavf57.44.100
Writing library                          : Lavf57.44.100

Video
ID                                       : 1
Format                                   : AVC
Format/Info                              : Advanced Video Codec
Format settings, CABAC                   : Yes
Format settings, ReFrames                : 2 frames
Codec ID                                 : V_MPEG4/ISO/AVC
Duration                                 : 1h 59mn
Bit rate                                 : 2 000 Kbps
Width                                    : 720 pixels
Height                                   : 400 pixels
Display aspect ratio                     : 16:9
Frame rate mode                          : Constant
Frame rate                               : 29.970 fps
Color space                              : YUV
Chroma subsampling                       : 4:2:0
Bit depth                                : 8 bits
Scan type                                : Progressive
Bits/(Pixel*Frame)                       : 0.232
Stream size                              : 1.61 GiB (89%)
Writing library                          : x264 core 148 r2643
Encoding settings                        : cabac=1 / ref=2 / deblock=1:0:0 / analyse=0x1:0x131 / me=hex / subme=7 / psy=1 / psy_rd=1.00:0.00 / mixed_ref=0 / me_range=16 / chroma_me=1 / trellis=1 / 8x8dct=0 / cqm=0 / deadzone=21,11 / fast_pskip=1 / chroma_qp_offset=-2 / threads=12 / lookahead_threads=2 / sliced_threads=0 / nr=0 / decimate=1 / interlaced=0 / bluray_compat=0 / constrained_intra=0 / bframes=3 / b_pyramid=0 / b_adapt=1 / b_bias=0 / direct=0 / weightb=1 / open_gop=0 / weightp=2 / keyint=299 / keyint_min=29 / scenecut=40 / intra_refresh=0 / rc_lookahead=40 / rc=abr / mbtree=1 / bitrate=2000 / ratetol=1.0 / qcomp=0.60 / qpmin=10 / qpmax=69 / qpstep=4 / vbv_maxrate=24000 / vbv_bufsize=24000 / nal_hrd=none / filler=0 / ip_ratio=1.40 / aq=3:1.00
Language                                 : English
Default                                  : Yes
Forced                                   : No
DURATION                                 : 01:59:11.077000000

Audio
ID                                       : 2
Format                                   : AC-3
Format/Info                              : Audio Coding 3
Mode extension                           : CM (complete main)
Format settings, Endianness              : Big
Codec ID                                 : A_AC3
Duration                                 : 1h 59mn
Bit rate mode                            : Constant
Bit rate                                 : 192 Kbps
Channel(s)                               : 2 channels
Channel positions                        : Front: L R
Sampling rate                            : 48.0 KHz
Compression mode                         : Lossy
Delay relative to video                  : 25ms
Stream size                              : 164 MiB (9%)
Language                                 : German
Default                                  : Yes
Forced                                   : Yes
DURATION                                 : 01:51:37.594000000

Beschreibung:
Independence.Day.2.Wiederkehr.2016.GERMAN.AC3.LiNE.DUBBED.HC.WEBRiP.x264-GOT
Wir wussten immer, dass sie zurückkehren werden! Nachdem "Independence Day" den Begriff Eventkino neu definiert hat, entführt das nächste epische Kapitel die Zuschauer in eine globale Katastrophe von unvorstellbarem Ausmaß. Mit Hilfe der Alien-Technologie haben die Nationen der Welt gemeinsam ein gigantisches Abwehrprogramm entwickelt, um die Erde zu schützen. Aber nichts kann uns vor der hochentwickelten und nie dagewesenen Stärke der Aliens bewahren. Lediglich durch den Einfallsreichtum einiger mutiger Männern und Frauen kann unsere Welt vor der Zerstörung gerettet werden. Regisseur Roland Emmerich konnte ein hochkarätiges Star-Ensemble für seinen Film gewinnen: es spielen Liam Hemsworth, Jeff Goldblum, Bill Pullman, Judd Hirsch, Vivica A. Fox, Brent Spiner, Charlotte Gainsbourg, Jessie Usher, Maika Monroe und Sela Ward. Ab Donnerstag 14. Juli 2016 nur im Kino
Direct Download Links | DDL-Links

Ähnliche Releases der Kategorie