Independence.Day.2.Wiederkehr.2016.GERMAN.AC3.LiNE..DUBBED.HC.WEBRiP.XViD-GOT

4. August 2016 von
Independence.Day.2.Wiederkehr.2016.GERMAN.AC3.LiNE..DUBBED.HC.WEBRiP.XViD-GOT Warez-World
Aufrufe: 59 Hits
Vote 4 Us
Release:
Independence Day 2: Wiederkehr WEB-RIP
Genre:
Action
Laufzeit:
117 Min.
Größe:
1663 MB
Passwort:
Warez-World.org
Sprachen:
Video Codec:
MPEG-4 DivX / Xvid
Audio Stream:
Line
Bewertung:
Video Vorschau:
Online Stream:
Info:
Zeige NFOVerberge NFO
General
Format                                   : AVI
Format/Info                              : Audio Video Interleave
Format profile                           : OpenDML
File size                                : 1.62 GiB
Duration                                 : 1h 59mn
Overall bit rate                         : 1 950 Kbps
Writing application                      : Lavf57.44.100

Video
ID                                       : 0
Format                                   : MPEG-4 Visual
Format settings, BVOP                    : No
Format settings, QPel                    : No
Format settings, GMC                     : No warppoints
Format settings, Matrix                  : Default (H.263)
Codec ID                                 : XVID
Codec ID/Hint                            : XviD
Duration                                 : 1h 59mn
Bit rate                                 : 1 816 Kbps
Width                                    : 720 pixels
Height                                   : 400 pixels
Display aspect ratio                     : 16:9
Frame rate                               : 29.970 fps
Color space                              : YUV
Chroma subsampling                       : 4:2:0
Bit depth                                : 8 bits
Scan type                                : Progressive
Compression mode                         : Lossy
Bits/(Pixel*Frame)                       : 0.210
Stream size                              : 1.51 GiB (93%)
Writing library                          : XviD 67

Audio
ID                                       : 1
Format                                   : MPEG Audio
Format version                           : Version 1
Format profile                           : Layer 3
Codec ID                                 : 55
Codec ID/Hint                            : MP3
Duration                                 : 1h 51mn
Bit rate mode                            : Constant
Bit rate                                 : 128 Kbps
Channel(s)                               : 2 channels
Sampling rate                            : 48.0 KHz
Compression mode                         : Lossy
Stream size                              : 102 MiB (6%)
Alignment                                : Aligned on interleaves
Interleave, duration                     : 26 ms (0.77 video frame)
Interleave, preload duration             : 48 ms
Writing library                          : LAMEU0c>+ú pÔÇØ8ÔÇÜm-úO-¦+Ø0

Beschreibung:
Independence.Day.2.Wiederkehr.2016.GERMAN.AC3.LiNE..DUBBED.HC.WEBRiP.XViD-GOT
Wir wussten immer, dass sie zurückkehren werden! Nachdem "Independence Day" den Begriff Eventkino neu definiert hat, entführt das nächste epische Kapitel die Zuschauer in eine globale Katastrophe von unvorstellbarem Ausmaß. Mit Hilfe der Alien-Technologie haben die Nationen der Welt gemeinsam ein gigantisches Abwehrprogramm entwickelt, um die Erde zu schützen. Aber nichts kann uns vor der hochentwickelten und nie dagewesenen Stärke der Aliens bewahren. Lediglich durch den Einfallsreichtum einiger mutiger Männern und Frauen kann unsere Welt vor der Zerstörung gerettet werden. Regisseur Roland Emmerich konnte ein hochkarätiges Star-Ensemble für seinen Film gewinnen: es spielen Liam Hemsworth, Jeff Goldblum, Bill Pullman, Judd Hirsch, Vivica A. Fox, Brent Spiner, Charlotte Gainsbourg, Jessie Usher, Maika Monroe und Sela Ward. Ab Donnerstag 14. Juli 2016 nur im Kino
Direct Download Links | DDL-Links

Ähnliche Releases der Kategorie