The.Invitation.2015.German.AC3.BDRiP.XViD-HaN

21. April 2016 von
The.Invitation.2015.German.AC3.BDRiP.XViD-HaN Warez-World
Aufrufe: 63 Hits
Vote 4 Us
Release:
The Invitation BD-RIP
Genre:
Thriller
Laufzeit:
90 Min.
Größe:
1797 MB
Passwort:
Warez-World.org
Sprachen:
Video Codec:
MPEG-4 DivX / Xvid
Audio Stream:
Dolby Digital 5.1
Bewertung:
Video Vorschau:
Online Stream:
Info:
Zeige NFOVerberge NFO
General
Format                                   : AVI
Format/Info                              : Audio Video Interleave
File size                                : 1.76 GiB
Duration                                 : 1h 40mn
Overall bit rate                         : 2 500 Kbps

Video
ID                                       : 0
Format                                   : MPEG-4 Visual
Format settings, BVOP                    : 2
Format settings, QPel                    : No
Format settings, GMC                     : No warppoints
Format settings, Matrix                  : Default (H.263)
Codec ID                                 : XVID
Codec ID/Hint                            : XviD
Duration                                 : 1h 40mn
Bit rate                                 : 2 044 Kbps
Width                                    : 720 pixels
Height                                   : 304 pixels
Display aspect ratio                     : 2.35:1
Frame rate                               : 23.976 fps
Color space                              : YUV
Chroma subsampling                       : 4:2:0
Bit depth                                : 8 bits
Scan type                                : Progressive
Compression mode                         : Lossy
Bits/(Pixel*Frame)                       : 0.390
Stream size                              : 1.44 GiB (82%)
Writing library                          : XviD 67

Audio
ID                                       : 1
Format                                   : AC-3
Format/Info                              : Audio Coding 3
Mode extension                           : CM (complete main)
Format settings, Endianness              : Big
Codec ID                                 : 2000
Duration                                 : 1h 40mn
Bit rate mode                            : Constant
Bit rate                                 : 448 Kbps
Channel(s)                               : 6 channels
Channel positions                        : Front: L C R, Side: L R, LFE
Sampling rate                            : 48.0 KHz
Compression mode                         : Lossy
Stream size                              : 322 MiB (18%)
Alignment                                : Aligned on interleaves
Interleave, duration                     : 64 ms (1.53 video frames)
Interleave, preload duration             : 192 ms
Title                                    : ger

Beschreibung:
The.Invitation.2015.German.AC3.BDRiP.XViD-HaN
Irgendetwas stimmt hier nicht auf dieser Dinnerparty, auf der sich alle so übertrieben freundlich verhalten. Auf der Will seine Ex-Frau wiedertrifft. Auf der Leute spurlos verschwinden, heimlich Medizin geschluckt wird und zum Nachtisch ein sehr unpassendes Video läuft. Bei dieser Dinnerparty kriecht die Paranoia durch die perlenden Cocktailgläser. Bildet sich Will die Bedrohung einfach nur ein, oder lauert hinter der schönen Fassade tatsächlich der Vorhof zur Hölle?
Direct Download Links | DDL-Links

Ähnliche Releases der Kategorie