Ip.Man.2008.German.1080p.DTSHD.BluRay.VC-1.Remux-pmHD

7. Juli 2016 von
Ip.Man.2008.German.1080p.DTSHD.BluRay.VC-1.Remux-pmHD Warez-World
Aufrufe: 18 Hits
Vote 4 Us
Release:
IP Man BD
Genre:
Drama
Laufzeit:
102 Min.
Größe:
21212 MB
Passwort:
Warez-World.org
Sprachen:
Video Codec:
MPEG-4 H.264 / AVC
Audio Stream:
DTS 5.1
Bewertung:
Video Vorschau:
Online Stream:
Info:
Zeige NFOVerberge NFO
General
Format                                   : Matroska
Format version                           : Version 4 / Version 2
File size                                : 20.7 GiB
Duration                                 : 1h 46mn
Overall bit rate                         : 27.8 Mbps
Movie name                               : Ip.Man.2008.German.1080p.DTSHD.BluRay.VC-1.Remux-pmHD
Encoded date                             : UTC 2015-12-23 08:43:20
Writing application                      : mkvmerge v7.8.0 ('River Man') 32bit built on Mar 27 2015 16:18:02
Writing library                          : libebml v1.3.1 + libmatroska v1.4.2

Video
ID                                       : 1
Format                                   : VC-1
Codec ID                                 : V_MS/VFW/FOURCC / WVC1
Codec ID/Hint                            : Microsoft
Duration                                 : 1h 46mn
Bit rate                                 : 24.5 Mbps
Width                                    : 1 920 pixels
Height                                   : 1 080 pixels
Display aspect ratio                     : 16:9
Frame rate mode                          : Constant
Frame rate                               : 23.976 fps
Color space                              : YUV
Chroma subsampling                       : 4:2:0
Bit depth                                : 8 bits
Scan type                                : Progressive
Compression mode                         : Lossy
Bits/(Pixel*Frame)                       : 0.492
Stream size                              : 18.2 GiB (88%)
Title                                    : Ip.Man.2008.German.1080p.DTSHD.BluRay.VC-1.Remux-pmHD
Language                                 : German
Default                                  : No
Forced                                   : No

Audio
ID                                       : 2
Format                                   : DTS
Format/Info                              : Digital Theater Systems
Format profile                           : HRA / Core
Mode                                     : 16
Format settings, Endianness              : Big
Codec ID                                 : A_DTS
Duration                                 : 1h 46mn
Bit rate mode                            : Constant
Bit rate                                 : 2 814 Kbps / 1 509 Kbps
Channel(s)                               : 6 channels
Channel positions                        : Front: L C R, Side: L R, LFE
Sampling rate                            : 48.0 KHz
Bit depth                                : 24 bits
Compression mode                         : Lossy
Stream size                              : 2.09 GiB (10%)
Title                                    : German  DTS-HD HR 5.1
Language                                 : German
Default                                  : Yes
Forced                                   : No

Text #1
ID                                       : 3
Format                                   : PGS
Codec ID                                 : S_HDMV/PGS
Codec ID/Info                            : Picture based subtitle format used on BDs/HD-DVDs
Title                                    : German
Language                                 : German
Default                                  : No
Forced                                   : No

Text #2
ID                                       : 4
Format                                   : VobSub
Codec ID                                 : S_VOBSUB
Codec ID/Info                            : Picture based subtitle format used on DVDs
Title                                    : German
Language                                 : German
Default                                  : No
Forced                                   : No

Text #3
ID                                       : 5
Format                                   : UTF-8
Codec ID                                 : S_TEXT/UTF8
Codec ID/Info                            : UTF-8 Plain Text
Title                                    : German  Forced
Language                                 : German
Default                                  : Yes
Forced                                   : Yes

Menu
00:00:00.000                             : en:00:00:00.000
00:09:41.039                             : en:00:09:41.039
00:17:47.692                             : en:00:17:47.692
00:27:31.775                             : en:00:27:31.775
00:37:30.290                             : en:00:37:30.290
00:46:38.254                             : en:00:46:38.254
00:55:37.876                             : en:00:55:37.876
01:05:07.529                             : en:01:05:07.529
01:16:40.679                             : en:01:16:40.679
01:26:05.494                             : en:01:26:05.494
01:35:39.901                             : en:01:35:39.901
01:43:31.455                             : en:01:43:31.455

Beschreibung:
Ip.Man.2008.German.1080p.DTSHD.BluRay.VC-1.Remux-pmHD
Hongkong, 1959: Der legendäre Wing-Chun-Kampfkünstler Ip Man führt ein ruhiges Leben mit seiner gesundheitlich geschwächten Frau Wing-sing und seinem Sohn Ip Ching. Als der gewissenlose US-Bauträger Frank samt seinem Schlägertrupp auftaucht, ist das Idyll abrupt vorbei. Der kaltblütige Straßenkampfboxer Frank setzt alles daran, das Land, auf dem die Schule von Ips Sohn Ip Ching gebaut ist, an sich zu reißen - koste es, was es wolle. Zusammen mit dem begabten Wing-Chun-Wettkämpfer Cheung Tin-chi und dem Vater von Ip Chings Klassenkameraden Cheung Fong kämpft Meister Ip Man für Gerechtigkeit und versucht mit allen Mitteln, die Schule seines Sohnes vor dem habgierigen Frank zu retten. Ein unerbittlicher Kampf um das Schicksal der Schule beginnt. Als Ip Man schließlich Frank gegenübersteht, fordert der brutale Bauunternehmer den begnadeten Kampfkünstler zu einem dreiminütigen Kampf heraus, bei dem es zum alles entscheidenden Showdown kommt!
Direct Download Links | DDL-Links

Ähnliche Releases der Kategorie