Jarhead.3.-.Die.Belagerung.2016.BDRip.AC3.German.XviD-FND

21. April 2016 von
Jarhead.3.-.Die.Belagerung.2016.BDRip.AC3.German.XviD-FND Warez-World
Aufrufe: 40 Hits
Vote 4 Us
Release:
Jarhead 3 - Die Belagerung BD-RIP
Genre:
Action
Laufzeit:
85 Min.
Größe:
1370 MB
Passwort:
Warez-World.org
Sprachen:
Video Codec:
MPEG-4 DivX / Xvid
Audio Stream:
Dolby Digital 5.1
Bewertung:
Video Vorschau:
Online Stream:
Info:
Zeige NFOVerberge NFO
General
Format                                   : AVI
Format/Info                              : Audio Video Interleave
File size                                : 1.34 GiB
Duration                                 : 1h 28mn
Overall bit rate                         : 2 153 Kbps

Video
ID                                       : 0
Format                                   : MPEG-4 Visual
Format settings, BVOP                    : 2
Format settings, QPel                    : No
Format settings, GMC                     : No warppoints
Format settings, Matrix                  : Default (MPEG)
Codec ID                                 : XVID
Codec ID/Hint                            : XviD
Duration                                 : 1h 28mn
Bit rate                                 : 1 760 Kbps
Width                                    : 720 pixels
Height                                   : 306 pixels
Display aspect ratio                     : 2.35:1
Frame rate                               : 23.976 fps
Color space                              : YUV
Chroma subsampling                       : 4:2:0
Bit depth                                : 8 bits
Scan type                                : Progressive
Compression mode                         : Lossy
Bits/(Pixel*Frame)                       : 0.333
Stream size                              : 1.09 GiB (82%)
Writing library                          : XviD 64

Audio
ID                                       : 1
Format                                   : AC-3
Format/Info                              : Audio Coding 3
Mode extension                           : CM (complete main)
Format settings, Endianness              : Big
Codec ID                                 : 2000
Duration                                 : 1h 28mn
Source duration                          : 1h 28mn
Bit rate mode                            : Constant
Bit rate                                 : 384 Kbps
Channel(s)                               : 6 channels
Channel positions                        : Front: L C R, Side: L R, LFE
Sampling rate                            : 48.0 KHz
Bit depth                                : 16 bits
Compression mode                         : Lossy
Stream size                              : 244 MiB (18%)
Alignment                                : Aligned on interleaves
Interleave, duration                     : 42 ms (1.00 video frame)

Beschreibung:
Jarhead.3.-.Die.Belagerung.2016.BDRip.AC3.German.XviD-FND
Unteroffizier Evan Albright hat sich der Elite-Sicherheits-Truppe der Marines angeschlossen - um die Welt zu retten oder wenigstens mehr Action zu erleben. Doch sein erster Auftrag, die U.S. Botschaft in einer als sicher geltenden Hauptstadt im Nahen Osten zu bewachen, wirkt wie eine Verbannung für seine Einheit. Im Truppenlager entstehen unsinnige Rangeleien und Video-Spiele bieten die einzige Möglichkeit, Treffsicherheit zu trainieren. So erwischt es Albright und seine Männer eiskalt, als eine Gruppe schwer bewaffneter und bestens ausgebildeter Kämpfer einen Überraschungsangriff starten. Ihr Ziel ist die Tötung eines Informanten in der Botschaft. Schwer unter Beschuss braucht Albright jetzt einen klaren Kopf und einen verdammt guten Plan! Was als unspektakulärer Routine-Auftrag begann, schaukelt sich zur internationalen Krise hoch...
Direct Download Links | DDL-Links

Ähnliche Releases der Kategorie