Joy.Alles.ausser.gewoehnlich.2015.German.AC3.WEBRip.XviD-iNTERFilm

21. April 2016 von
Joy.Alles.ausser.gewoehnlich.2015.German.AC3.WEBRip.XviD-iNTERFilm Warez-World
Aufrufe: 22 Hits
Vote 4 Us
Release:
Joy Alles ausser gewoehnlich WEB-RIP
Genre:
Drama
Laufzeit:
120 Min.
Größe:
1620 MB
Passwort:
Warez-World.org
Sprachen:
Video Codec:
MPEG-4 DivX / Xvid
Audio Stream:
Stereo
Bewertung:
Video Vorschau:
Online Stream:
Info:
Zeige NFOVerberge NFO
General
Format                                   : AVI
Format/Info                              : Audio Video Interleave
Format profile                           : OpenDML
Format settings                          : rec
File size                                : 1.58 GiB
Duration                                 : 2h 4mn
Overall bit rate                         : 1 821 Kbps
Writing application                      : AVI-Mux GUI 1.17.8.3, Feb 16 201019:42:50

Video
ID                                       : 0
Format                                   : xvid
Codec ID                                 : xvid
Duration                                 : 2h 4mn
Bit rate                                 : 1 496 Kbps
Width                                    : 720 pixels
Height                                   : 388 pixels
Display aspect ratio                     : 1.85:1
Frame rate                               : 23.976 fps
Bits/(Pixel*Frame)                       : 0.223
Stream size                              : 1.30 GiB (82%)

Audio #1
ID                                       : 1
Format                                   : AC-3
Format/Info                              : Audio Coding 3
Mode extension                           : CM (complete main)
Format settings, Endianness              : Big
Codec ID                                 : 2000
Duration                                 : 2h 4mn
Bit rate mode                            : Constant
Bit rate                                 : 192 Kbps
Channel(s)                               : 2 channels
Channel positions                        : Front: L R
Sampling rate                            : 48.0 KHz
Compression mode                         : Lossy
Stream size                              : 170 MiB (11%)
Alignment                                : Aligned on interleaves
Interleave, duration                     : 64 ms (1.54 video frames)
Interleave, preload duration             : 192 ms
Title                                    : enticement-joy.alles.ausser.gewoehnlich.web

Audio #2
ID                                       : 2
Format                                   : MPEG Audio
Format version                           : Version 1
Format profile                           : Layer 3
Mode                                     : Joint stereo
Mode extension                           : MS Stereo
Codec ID                                 : 55
Codec ID/Hint                            : MP3
Duration                                 : 2h 4mn
Bit rate mode                            : Constant
Bit rate                                 : 128 Kbps
Channel(s)                               : 2 channels
Sampling rate                            : 44.1 KHz
Compression mode                         : Lossy
Stream size                              : 114 MiB (7%)
Alignment                                : Aligned on interleaves
Interleave, duration                     : 484 ms (11.62 video frames)
Interleave, preload duration             : 208 ms
Writing library                          : LAME3.98.4

Beschreibung:
Joy.Alles.ausser.gewoehnlich.2015.German.AC3.WEBRip.XviD-iNTERFilm
"Joy" ist die aufregende, über vier Generationen erzählte Familiengeschichte des Mädchens Joy, die zur Frau wird, ein Geschäftsimperium aufbaut und als Matriarchin eigenständig leitet. In dieser intensiven, hochemotionalen und vor allem sehr menschlichen Komödie zeichnen Verrat, Vertrauensmissbrauch, der Verlust von Unschuld und verletzte Liebe Joys Lebensweg zum wahren Familienoberhaupt und zur Chefin ihres Unternehmens, mit dem sie sich in einer gnadenlosen Geschäftswelt erfolgreich behauptet. Während Joys innere Stärke und wilde Vorstellungskraft sie durch schwere Zeiten tragen, werden Verbündete zu Kontrahenten und Gegner zu Verbündeten - sowohl innerhalb als auch außerhalb der Familie.
Direct Download Links | DDL-Links

Ähnliche Releases der Kategorie