Jurassic.Park.1993.German.1080p.DL.DTSHD.REMASTERED.BluRay.VC-1.Remux-pmHD

19. Mai 2016 von
Jurassic.Park.1993.German.1080p.DL.DTSHD.REMASTERED.BluRay.VC-1.Remux-pmHD Warez-World
Aufrufe: 33 Hits
Vote 4 Us
Release:
Jurassic Park BD
Genre:
Thriller
Laufzeit:
127 Min.
Größe:
26115 MB
Passwort:
Warez-World.org
Sprachen:
Video Codec:
MPEG-4 H.264 / AVC
Audio Stream:
DTS 5.1
Bewertung:
Video Vorschau:
Online Stream:
Info:
Zeige NFOVerberge NFO
General
Format                                   : Matroska
Format version                           : Version 2
File size                                : 25.5 GiB
Duration                                 : 2h 6mn
Overall bit rate mode                    : Variable
Overall bit rate                         : 28.8 Mbps
Movie name                               : Jurassic.Park.1993.German.1080p.DL.DTSHD.REMASTERED.BluRay.VC-1.Remux-pmHD
Encoded date                             : UTC 2014-12-26 15:23:22
Writing application                      : mkvmerge v5.3.0 ('I could have danced') built on Feb  9 2012 10:38:07
Writing library                          : libebml v1.2.3 + libmatroska v1.3.0

Video
ID                                       : 1
Format                                   : AVC
Format/Info                              : Advanced Video Codec
Format settings, CABAC                   : Yes
Format settings, ReFrames                : 3 frames
Codec ID                                 : V_MPEG4/ISO/AVC
Duration                                 : 2h 6mn
Bit rate mode                            : Variable
Bit rate                                 : 24.1 Mbps
Maximum bit rate                         : 33.0 Mbps
Width                                    : 1 920 pixels
Height                                   : 1 080 pixels
Display aspect ratio                     : 16:9
Frame rate mode                          : Constant
Frame rate                               : 23.976 fps
Color space                              : YUV
Chroma subsampling                       : 4:2:0
Bit depth                                : 8 bits
Scan type                                : Progressive
Bits/(Pixel*Frame)                       : 0.486
Stream size                              : 21.4 GiB (84%)
Title                                    : Jurassic.Park.1993.German.1080p.DL.DTSHD.REMASTERED.BluRay.VC-1.Remux-pmHD
Language                                 : German
Default                                  : No
Forced                                   : No

Audio #1
ID                                       : 2
Format                                   : DTS
Format/Info                              : Digital Theater Systems
Format profile                           : HRA / Core
Mode                                     : 16
Format settings, Endianness              : Big
Codec ID                                 : A_DTS
Duration                                 : 2h 6mn
Bit rate mode                            : Constant
Bit rate                                 : 2 046 Kbps / 1 509 Kbps
Channel(s)                               : 8 channels / 6 channels
Channel positions                        : Front: L C R, Side: L R, Back: L R, LFE / Front: L C R, Side: L R, LFE
Sampling rate                            : 48.0 KHz
Bit depth                                : 24 bits
Compression mode                         : Lossy
Stream size                              : 1.81 GiB (7%)
Title                                    : German  DTS-HD HR 7.1
Language                                 : German
Default                                  : Yes
Forced                                   : No

Audio #2
ID                                       : 3
Format                                   : DTS
Format/Info                              : Digital Theater Systems
Format profile                           : HRA / Core
Mode                                     : 16
Format settings, Endianness              : Big
Codec ID                                 : A_DTS
Duration                                 : 2h 6mn
Bit rate mode                            : Constant
Bit rate                                 : 2 046 Kbps / 1 509 Kbps
Channel(s)                               : 8 channels / 6 channels
Channel positions                        : Front: L C R, Side: L R, Back: L R, LFE / Front: L C R, Side: L R, LFE
Sampling rate                            : 48.0 KHz
Bit depth                                : 24 bits
Compression mode                         : Lossy
Stream size                              : 1.81 GiB (7%)
Title                                    : English DTS-HD HR 7.1
Language                                 : English
Default                                  : No
Forced                                   : No

Text #1
ID                                       : 4
Format                                   : UTF-8
Codec ID                                 : S_TEXT/UTF8
Codec ID/Info                            : UTF-8 Plain Text
Title                                    : German Forced
Language                                 : German
Default                                  : Yes
Forced                                   : Yes

Text #2
ID                                       : 5
Format                                   : PGS
Codec ID                                 : S_HDMV/PGS
Codec ID/Info                            : Picture based subtitle format used on BDs/HD-DVDs
Title                                    : English
Language                                 : English
Default                                  : No
Forced                                   : No

Text #3
ID                                       : 6
Format                                   : VobSub
Codec ID                                 : S_VOBSUB
Codec ID/Info                            : Picture based subtitle format used on DVDs
Title                                    : English
Language                                 : English
Default                                  : No
Forced                                   : No

Text #4
ID                                       : 7
Format                                   : PGS
Codec ID                                 : S_HDMV/PGS
Codec ID/Info                            : Picture based subtitle format used on BDs/HD-DVDs
Title                                    : German
Language                                 : German
Default                                  : No
Forced                                   : No

Text #5
ID                                       : 8
Format                                   : VobSub
Codec ID                                 : S_VOBSUB
Codec ID/Info                            : Picture based subtitle format used on DVDs
Title                                    : German
Language                                 : German
Default                                  : No
Forced                                   : No

Text #6
ID                                       : 9
Format                                   : PGS
Codec ID                                 : S_HDMV/PGS
Codec ID/Info                            : Picture based subtitle format used on BDs/HD-DVDs
Title                                    : German
Language                                 : German
Default                                  : No
Forced                                   : No

Text #7
ID                                       : 10
Format                                   : VobSub
Codec ID                                 : S_VOBSUB
Codec ID/Info                            : Picture based subtitle format used on DVDs
Title                                    : German
Language                                 : German
Default                                  : No
Forced                                   : No

Menu
00:00:00.000                             : en:00:00:00.000
00:05:22.197                             : en:00:05:22.197
00:10:17.116                             : en:00:10:17.116
00:15:19.418                             : en:00:15:19.418
00:19:35.591                             : en:00:19:35.591
00:23:49.178                             : en:00:23:49.178
00:31:42.526                             : en:00:31:42.526
00:38:01.571                             : en:00:38:01.571
00:40:29.052                             : en:00:40:29.052
00:55:30.410                             : en:00:55:30.410
01:01:45.619                             : en:01:01:45.619
01:10:46.492                             : en:01:10:46.492
01:20:03.507                             : en:01:20:03.507
01:34:06.349                             : en:01:34:06.349
01:39:47.690                             : en:01:39:47.690
01:43:45.553                             : en:01:43:45.553
01:47:59.223                             : en:01:47:59.223
01:54:47.756                             : en:01:54:47.756
01:58:06.788                             : en:01:58:06.788
01:59:58.358                             : en:01:59:58.358

Beschreibung:
Jurassic.Park.1993.German.1080p.DL.DTSHD.REMASTERED.BluRay.VC-1.Remux-pmHD
Ein reicher Unternehmer errichtet auf einer einsamen lnsel heimlich einen Erlebnispark, der für seine Gäste aussergewöhnliche Attraktionen bereithält. Es gelang ihm, aus einer urzeitlichen DNA leibhaftige Dinosaurier ins Leben zu rufen. Bevor der Park für das Publikum geöffnet wird, lädt er einen führenden Paläontologen, dessen Freundin, eine Paläobotanikerin, einen berühmten Mathematiker und seine beiden wissbegierigen Enkel ein, um die besorgten Investoren zu beruhigen. Aber der Besuch seiner ersten Gäste verläuft alles andere als nach PIan. Die urzeitlichen Monster brechen aus, entziehen sich jeder Kontrolle und starten eine mörderische Jagd auf ihre Schöpfer...
Direct Download Links | DDL-Links

Ähnliche Releases der Kategorie