Keanu.2016.720p.HC.HDRip.x264.AC3-TiTAN

27. Mai 2016 von
Keanu.2016.720p.HC.HDRip.x264.AC3-TiTAN Warez-World
Aufrufe: 136 Hits
Vote 4 Us
Release:
Keanu BD-RIP
Genre:
Comedy
Laufzeit:
100 Min.
Größe:
1688 MB
Passwort:
Warez-World.org
Sprachen:
Video Codec:
MPEG-4 H.264 / AVC
Audio Stream:
Dolby Digital 5.1
Bewertung:
Video Vorschau:
Online Stream:
Info:
Zeige NFOVerberge NFO
[img]http://i.imgur.com/oFJTdpJ.jpg[/img]

http://www.imdb.com/title/tt4139124/

Source: Mp4Ba

General

Format                                   : Matroska
Format version                           : Version 2
File size                                : 1.65 GiB
Duration                                 : 1h 38mn
Overall bit rate mode                    : Variable
Overall bit rate                         : 2 404 Kbps

Video
ID                                       : 1
Format                                   : AVC
Format/Info                              : Advanced Video Codec
Format profile                           : High@L4.1
Format settings, CABAC                   : Yes
Format settings, ReFrames                : 3 frames
Codec ID                                 : V_MPEG4/ISO/AVC
Duration                                 : 1h 38mn
Bit rate mode                            : Variable
Bit rate                                 : 2 197 Kbps
Maximum bit rate                         : 40.0 Mbps
Width                                    : 1 280 pixels
Height                                   : 534 pixels
Display aspect ratio                     : 2.40:1
Frame rate mode                          : Constant
Frame rate                               : 23.976 fps
Color space                              : YUV
Chroma subsampling                       : 4:2:0
Bit depth                                : 8 bits
Scan type                                : Progressive
Bits/(Pixel*Frame)                       : 0.134
Stream size                              : 1.51 GiB (91%)
Default                                  : Yes
Forced                                   : No
Color primaries                          : BT.709
Transfer characteristics                 : BT.709
Matrix coefficients                      : BT.709

Audio
ID                                       : 2
Format                                   : AC-3
Format/Info                              : Audio Coding 3
Mode extension                           : CM (complete main)
Format settings, Endianness              : Big
Codec ID                                 : A_AC3
Duration                                 : 1h 38mn
Bit rate mode                            : Constant
Bit rate                                 : 160 Kbps
Channel(s)                               : 2 channels
Channel positions                        : Front: L R
Sampling rate                            : 48.0 KHz
Bit depth                                : 16 bits
Compression mode                         : Lossy
Stream size                              : 112 MiB (7%)
Language                                 : English
Default                                  : Yes
Forced                                   : No

[img]http://i.imgur.com/UqWXTVm.png[/img]
[img]http://i.imgur.com/CbTMqJO.png[/img]
[img]http://i.imgur.com/7deFy6t.png[/img]
[img]http://i.imgur.com/5pLQAdx.png[/img]
[img]http://i.imgur.com/lmhZTOh.png[/img]
[img]http://i.imgur.com/Cw27skg.png[/img]
Beschreibung:
Keanu.2016.720p.HC.HDRip.x264.AC3-TiTAN
Keegan-Michael Key und Jordan Peele, bekannt und beliebt als Comedy-Duo Key & Peele, spielen die Hauptrollen in der Action-Komödie "Keanu" von New Line Cinema: Die Cousins Clarence und Rell sind mit dem Großstadtleben reichlich überfordert. Als Rells geliebtes Kätzchen Keanu entführt wird, muss sich das hoffnungslos altmodisch-sittenstrenge Duo als zwei skrupellose Killer ausgeben, um sich so in eine Straßengang einzuschleusen und den gekidnappten Kater zu befreien. Doch der unglaublich kuschelige Vierbeiner schmust sich bei allen Beteiligten derart ein, dass der Streit um das Sorgerecht einen Bandenkrieg auslöst. Schon bald werden unsere beiden Helden wider Willen gezwungen, das Gesetz in die eigene Hand zu nehmen.
Direct Download Links | DDL-Links

Ähnliche Releases der Kategorie