Keanu.2016.German.Subbed.AC3.720p.WEB-DL.x264-iND

10. Juli 2016 von
Keanu.2016.German.Subbed.AC3.720p.WEB-DL.x264-iND Warez-World
Aufrufe: 103 Hits
Vote 4 Us
Release:
Keanu WEB-DL
Genre:
Komödie
Laufzeit:
98 Min.
Größe:
3257 MB
Passwort:
Kein Passwort
Sprachen:
Video Codec:
MPEG-4 H.264 / AVC
Audio Stream:
Dolby Digital 5.1
Bewertung:
Video Vorschau:
Online Stream:
Info:
Zeige NFOVerberge NFO
General
Unique ID                      : 199764528589185407870602992891453642018 (0x96493FADA9A131ED92D69D3DF8661522)
Complete name                  : keanu-720psubbed.mkv
Format                         : Matroska
Format version                 : Version 4 / Version 2
File size                      : 3.18 GiB
Duration                       : 1h 39mn
Overall bit rate               : 4 564 Kbps

Video
ID                             : 1
Format                         : AVC
Format/Info                    : Advanced Video Codec
Format profile                 : High@L4.1
Format settings, CABAC         : Yes
Format settings, ReFrames      : 4 frames
Codec ID                       : V_MPEG4/ISO/AVC
Duration                       : 1h 39mn
Bit rate                       : 4 178 Kbps
Width                          : 1 280 pixels
Height                         : 532 pixels
Display aspect ratio           : 2.40:1
Frame rate mode                : Constant
Frame rate                     : 23.976 (24000/1001) fps
Color space                    : YUV
Chroma subsampling             : 4:2:0
Bit depth                      : 8 bits
Scan type                      : Progressive
Bits/(Pixel*Frame)             : 0.256
Stream size                    : 2.91 GiB (92%)
Default                        : Yes
Forced                         : No

Audio
ID                             : 2
Format                         : AC-3
Format/Info                    : Audio Coding 3
Mode extension                 : CM (complete main)
Format settings, Endianness    : Big
Codec ID                       : A_AC3
Duration                       : 1h 39mn
Bit rate mode                  : Constant
Bit rate                       : 384 Kbps
Channel(s)                     : 6 channels
Channel positions              : Front: L C R, Side: L R, LFE
Sampling rate                  : 48.0 KHz
Frame rate                     : 31.250 fps (1536 spf)
Compression mode               : Lossy
Stream size                    : 274 MiB (8%)
Language                       : English
Default                        : Yes
Forced                         : Yes

Text
ID                             : 3
Format                         : UTF-8
Codec ID                       : S_TEXT/UTF8
Codec ID/Info                  : UTF-8 Plain Text
Duration                       : 1h 33mn
Bit rate                       : 86 bps
Count of elements              : 1860
Stream size                    : 58.9 KiB (0%)
Language                       : German
Default                        : Yes
Forced                         : Yes

Menu
00:00:00.000                   : en:1
00:10:19.000                   : en:2
00:20:05.000                   : en:3
00:31:57.000                   : en:4
00:38:46.000                   : en:5
00:50:05.000                   : en:6
01:01:53.000                   : en:7
01:12:47.000                   : en:8
01:22:35.000                   : en:9
01:32:38.000                   : en:10
Beschreibung:
Keanu.2016.German.Subbed.AC3.720p.WEB-DL.x264-iND
Als zwei Drogendealer (Keegan-Michael Key und Jordan Peele) ein Geschäft von Rivalen blutig und mit großem Waffeneinsatz beenden, muss Kätzchen Keanu ganz schön rennen, um nicht auch im Kugelhagel zu enden. Das niedliche Tier irrt durch Los Angeles, bis vor Rells (Jordan Peele) Tür, wo es in dem frisch von seiner Freundin verlassenen Mann ein neues Herrchen findet. Rell, der schwer an gebrochenem Herzen litt, fasst neuen Lebensmut – doch dann verschwindet Keanu zwei Wochen später nach einem Einbruch. Zusammen mit seinem Cousin Clarence (Keegan-Michael Key), dessen Frau und Tochter das Wochenende über weggefahren sind, macht sich Rell auf die Suche nach der verschwundenen Katze. Das Duo findet heraus, dass Keanu nun einem Drogenbaron namens Cheddar (Method Man) gehört. Rell und Clarence schmeißen sich daraufhin in Gangsterklamotten und tun auch sonst alles, um als böse Buben rüberzukommen, damit sie undercover gehen und Keanu retten können…
Direct Download Links | DDL-Links

Ähnliche Releases der Kategorie