Keanu.2016.HC.WEBRip.x264-STUTTERSHIT

27. Mai 2016 von
Keanu.2016.HC.WEBRip.x264-STUTTERSHIT Warez-World
Aufrufe: 247 Hits
Vote 4 Us
Release:
Keanu 2016 HC WEB-RIP
Genre:
Comedy
Größe:
861 MB
Passwort:
Warez-World.org
Sprachen:
Video Codec:
MPEG-4 H.264 / AVC
Audio Stream:
Dolby Digital 5.1
Bewertung:
Video Vorschau:
Online Stream:
Info:
Zeige NFOVerberge NFO
[URL=http://imagecurl.com/viewer.php?file=19071489422003573942.png][IMG]http://imagecurl.com/images/19071489422003573942_thumb.png[/IMG][/URL]
[URL=http://imagecurl.com/viewer.php?file=74816397203030414610.png][IMG]http://imagecurl.com/images/74816397203030414610_thumb.png[/IMG][/URL]
[URL=http://imagecurl.com/viewer.php?file=18490820548625428667.png][IMG]http://imagecurl.com/images/18490820548625428667_thumb.png[/IMG][/URL]
[URL=http://imagecurl.com/viewer.php?file=08328106717968365173.png][IMG]http://imagecurl.com/images/08328106717968365173_thumb.png[/IMG][/URL]
[URL=http://imagecurl.com/viewer.php?file=75635143820119655733.png][IMG]http://imagecurl.com/images/75635143820119655733_thumb.png[/IMG][/URL]
[URL=http://imagecurl.com/viewer.php?file=32787420836016270036.png][IMG]http://imagecurl.com/images/32787420836016270036_thumb.png[/IMG][/URL]



[mediainfo]
Video
ID                                       : 1
Format                                   : AVC
Format/Info                              : Advanced Video Codec
Format profile                           : High@L3.1
Format settings, CABAC                   : Yes
Format settings, ReFrames                : 5 frames
Codec ID                                 : avc1
Codec ID/Info                            : Advanced Video Coding
Duration                                 : 1h 38mn
Bit rate                                 : 1 100 Kbps
Width                                    : 720 pixels
Height                                   : 304 pixels
Display aspect ratio                     : 2.40:1
Frame rate mode                          : Constant
Frame rate                               : 23.976 (24000/1001) fps
Color space                              : YUV
Chroma subsampling                       : 4:2:0
Bit depth                                : 8 bits
Scan type                                : Progressive
Bits/(Pixel*Frame)                       : 0.210
Stream size                              : 767 MiB (89%)
Title                                    : Keanu.2016.HC.WEBRip.x264-STUTTERSHIT
Writing library                          : x264 core 148 r2601 a0cd7d3
Encoding settings                        : cabac=1 / ref=5 / deblock=1:-2:-2 / analyse=0x3:0x113 / me=umh / subme=8 / psy=1 / psy_rd=0.90:0.00 / mixed_ref=1 / me_range=16 / chroma_me=1 / trellis=1 / 8x8dct=1 / cqm=0 / deadzone=21,11 / fast_pskip=1 / chroma_qp_offset=-2 / threads=8 / lookahead_threads=2 / sliced_threads=0 / nr=0 / decimate=1 / interlaced=0 / bluray_compat=0 / constrained_intra=0 / bframes=3 / b_pyramid=2 / b_adapt=2 / b_bias=0 / direct=3 / weightb=1 / open_gop=0 / weightp=2 / keyint=250 / keyint_min=25 / scenecut=40 / intra_refresh=0 / rc_lookahead=50 / rc=abr / mbtree=1 / bitrate=1100 / ratetol=1.0 / qcomp=0.60 / qpmin=0 / qpmax=69 / qpstep=4 / vbv_maxrate=31250 / vbv_bufsize=31250 / nal_hrd=none / filler=0 / ip_ratio=1.40 / aq=1:1.00

Audio
ID                                       : 2
Format                                   : AAC
Format/Info                              : Advanced Audio Codec
Format profile                           : LC
Codec ID                                 : 40
Duration                                 : 1h 38mn
Duration_LastFrame                       : 43ms
Bit rate mode                            : Variable
Bit rate                                 : 128 Kbps
Maximum bit rate                         : 31.3 Mbps
Channel(s)                               : 2 channels
Channel positions                        : Front: L R
Sampling rate                            : 48.0 KHz
Frame rate                               : 46.875 fps (1024 spf)
Compression mode                         : Lossy
Stream size                              : 89.8 MiB (10%)
Title                                    : Keanu.2016.HC.WEBRip.x264-STUTTERSHIT
Default                                  : Yes
Alternate group                          : 1



[/mediainfo]
Beschreibung:
Keanu.2016.HC.WEBRip.x264-STUTTERSHIT
Keegan-Michael Key und Jordan Peele, bekannt und beliebt als Comedy-Duo Key & Peele, spielen die Hauptrollen in der Action-Komödie "Keanu" von New Line Cinema: Die Cousins Clarence und Rell sind mit dem Großstadtleben reichlich überfordert. Als Rells geliebtes Kätzchen Keanu entführt wird, muss sich das hoffnungslos altmodisch-sittenstrenge Duo als zwei skrupellose Killer ausgeben, um sich so in eine Straßengang einzuschleusen und den gekidnappten Kater zu befreien. Doch der unglaublich kuschelige Vierbeiner schmust sich bei allen Beteiligten derart ein, dass der Streit um das Sorgerecht einen Bandenkrieg auslöst. Schon bald werden unsere beiden Helden wider Willen gezwungen, das Gesetz in die eigene Hand zu nehmen.
Direct Download Links | DDL-Links

Ähnliche Releases der Kategorie