Keanu.2016.HC.WEBRip.XviD.MP3-STUTTERSHIT

27. Mai 2016 von
Keanu.2016.HC.WEBRip.XviD.MP3-STUTTERSHIT Warez-World
Aufrufe: 121 Hits
Vote 4 Us
Release:
Keanu 2016 HC WEB-RIP
Genre:
Comedy
Laufzeit:
98 Min.
Größe:
1265 MB
Passwort:
Warez-World.org
Sprachen:
Video Codec:
MPEG-4 DivX / Xvid
Audio Stream:
Dolby Digital 5.1
Bewertung:
Video Vorschau:
Online Stream:
Info:
Zeige NFOVerberge NFO
[mediainfo]
Video
ID                                       : 0
Format                                   : MPEG-4 Visual
Format profile                           : Simple@L5
Format settings, BVOP                    : No
Format settings, QPel                    : No
Format settings, GMC                     : No warppoints
Format settings, Matrix                  : Default (H.263)
Codec ID                                 : XVID
Codec ID/Hint                            : XviD
Duration                                 : 1h 38mn
Bit rate                                 : 1 597 Kbps
Width                                    : 720 pixels
Height                                   : 304 pixels
Display aspect ratio                     : 2.40:1
Frame rate                               : 23.976 fps
Color space                              : YUV
Chroma subsampling                       : 4:2:0
Bit depth                                : 8 bits
Scan type                                : Progressive
Compression mode                         : Lossy
Bits/(Pixel*Frame)                       : 0.304
Stream size                              : 1.09 GiB (89%)
Writing library                          : Lavc56.13.100

Audio
ID                                       : 1
Format                                   : MPEG Audio
Format version                           : Version 1
Format profile                           : Layer 3
Mode                                     : Joint stereo
Mode extension                           : MS Stereo
Codec ID                                 : 55
Codec ID/Hint                            : MP3
Duration                                 : 1h 38mn
Bit rate mode                            : Constant
Bit rate                                 : 192 Kbps
Channel(s)                               : 2 channels
Sampling rate                            : 48.0 KHz
Compression mode                         : Lossy
Stream size                              : 135 MiB (11%)
Alignment                                : Aligned on interleaves
Interleave, duration                     : 24 ms (0.58 video frame)
Interleave, preload duration             : 504 ms
Writing library                          : LAME3.99.5



[/mediainfo]
Beschreibung:
Keanu.2016.HC.WEBRip.XviD.MP3-STUTTERSHIT
Keegan-Michael Key und Jordan Peele, bekannt und beliebt als Comedy-Duo Key & Peele, spielen die Hauptrollen in der Action-Komödie "Keanu" von New Line Cinema: Die Cousins Clarence und Rell sind mit dem Großstadtleben reichlich überfordert. Als Rells geliebtes Kätzchen Keanu entführt wird, muss sich das hoffnungslos altmodisch-sittenstrenge Duo als zwei skrupellose Killer ausgeben, um sich so in eine Straßengang einzuschleusen und den gekidnappten Kater zu befreien. Doch der unglaublich kuschelige Vierbeiner schmust sich bei allen Beteiligten derart ein, dass der Streit um das Sorgerecht einen Bandenkrieg auslöst. Schon bald werden unsere beiden Helden wider Willen gezwungen, das Gesetz in die eigene Hand zu nehmen.
Direct Download Links | DDL-Links

Ähnliche Releases der Kategorie