Krampus.2015.German.AC3D.5.1.BDRiP.XviD-FIJ

21. April 2016 von
Krampus.2015.German.AC3D.5.1.BDRiP.XviD-FIJ Warez-World
Aufrufe: 49 Hits
Vote 4 Us
Release:
Krampus BD-RIP
Genre:
Comedy
Laufzeit:
97 Min.
Größe:
1399 MB
Passwort:
Warez-World.org
Sprachen:
Video Codec:
MPEG-4 DivX / Xvid
Audio Stream:
Dolby Digital 5.1
Bewertung:
Video Vorschau:
Online Stream:
Info:
Zeige NFOVerberge NFO
General
Format                                   : AVI
Format/Info                              : Audio Video Interleave
File size                                : 1.37 GiB
Duration                                 : 1h 37mn
Overall bit rate                         : 2 002 Kbps
Writing application                      : VirtualDubModRus 1.5.10.2 (build 2540/release)
Writing library                          : VirtualDubMod build 2540/release

Video
ID                                       : 0
Format                                   : MPEG-4 Visual
Format settings, BVOP                    : No
Format settings, QPel                    : No
Format settings, GMC                     : No warppoints
Format settings, Matrix                  : Default (H.263)
Codec ID                                 : XVID
Codec ID/Hint                            : XviD
Duration                                 : 1h 37mn
Bit rate                                 : 1 609 Kbps
Width                                    : 720 pixels
Height                                   : 304 pixels
Display aspect ratio                     : 2.35:1
Frame rate                               : 23.976 fps
Color space                              : YUV
Chroma subsampling                       : 4:2:0
Bit depth                                : 8 bits
Scan type                                : Progressive
Compression mode                         : Lossy
Bits/(Pixel*Frame)                       : 0.307
Stream size                              : 1.10 GiB (80%)
Writing library                          : XviD 64

Audio
ID                                       : 1
Format                                   : AC-3
Format/Info                              : Audio Coding 3
Mode extension                           : CM (complete main)
Format settings, Endianness              : Big
Codec ID                                 : 2000
Duration                                 : 1h 37mn
Bit rate mode                            : Constant
Bit rate                                 : 384 Kbps
Channel(s)                               : 6 channels
Channel positions                        : Front: L C R, Side: L R, LFE
Sampling rate                            : 48.0 KHz
Compression mode                         : Lossy
Stream size                              : 268 MiB (19%)
Alignment                                : Split accross interleaves
Interleave, duration                     : 42 ms (1.00 video frame)
Interleave, preload duration             : 500 ms

Beschreibung:
Krampus.2015.German.AC3D.5.1.BDRiP.XviD-FIJ
Die Weihnachtszeit ist die magischste Zeit des Jahres, doch es gibt eine düstere Weihnachtslegende, die dunkle Schatten auf das Fest wirft. Ein uralter Volksglaube warnt vor Krampus, der auf einen Jahrhunderte alten Mythos in der Geschichte der europäischen Kulturen zurückgeht. Es ist ein gehörntes Biest, das unartige Kinder an Weihnachten fängt - Krampus ist teils Frohsinn und teils Monster. Der Weihnachtsmann belohnt die braven Kinder, Krampus bestraft die bösen. Der Weihnachtsmann bringt Fröhlichkeit und Freude, Krampus entfesselt Dunkelheit und Chaos. Der Weihnachtsmann verteilt Geschenke, Krampus sammelt Seelen ein.
Direct Download Links | DDL-Links

Ähnliche Releases der Kategorie