Krampus.German.2015.AC3LD.BDRiP.XVID-OMS

21. April 2016 von
Krampus.German.2015.AC3LD.BDRiP.XVID-OMS Warez-World
Aufrufe: 37 Hits
Vote 4 Us
Release:
Krampus BD-RIP
Genre:
Comedy
Laufzeit:
97 Min.
Größe:
1012 MB
Passwort:
Warez-World.org
Sprachen:
Video Codec:
MPEG-4 DivX / Xvid
Audio Stream:
Line
Bewertung:
Video Vorschau:
Online Stream:
Info:
Zeige NFOVerberge NFO
General
Format                                   : AVI
Format/Info                              : Audio Video Interleave
File size                                : 1 012 MiB
Duration                                 : 1h 37mn
Overall bit rate                         : 1 449 Kbps
Movie name                               : Krampus.German.2015.AC3LD.BDRiP.XVID-OMS
Genre                                    : Fantasy
Recorded date                            : 2015
Writing application                      : Lavf57.2.100

Video
ID                                       : 0
Format                                   : MPEG-4 Visual
Format settings, BVOP                    : No
Format settings, QPel                    : No
Format settings, GMC                     : No warppoints
Format settings, Matrix                  : Default (H.263)
Codec ID                                 : DIVX
Codec ID/Info                            : Project Mayo
Codec ID/Hint                            : DivX 4
Duration                                 : 1h 37mn
Bit rate                                 : 1 246 Kbps
Width                                    : 720 pixels
Height                                   : 300 pixels
Display aspect ratio                     : 2.40:1
Frame rate                               : 24.000 fps
Color space                              : YUV
Chroma subsampling                       : 4:2:0
Bit depth                                : 8 bits
Scan type                                : Progressive
Compression mode                         : Lossy
Bits/(Pixel*Frame)                       : 0.240
Stream size                              : 871 MiB (86%)
Writing library                          : XviD 67

Audio
ID                                       : 1
Format                                   : AC-3
Format/Info                              : Audio Coding 3
Mode extension                           : CM (complete main)
Format settings, Endianness              : Big
Codec ID                                 : 2000
Duration                                 : 1h 37mn
Bit rate mode                            : Constant
Bit rate                                 : 192 Kbps
Channel(s)                               : 2 channels
Channel positions                        : Front: L R
Sampling rate                            : 48.0 KHz
Bit depth                                : 16 bits
Compression mode                         : Lossy
Stream size                              : 134 MiB (13%)
Alignment                                : Aligned on interleaves
Interleave, duration                     : 32 ms (0.77 video frame)
Language                                 : German

Beschreibung:
Krampus.German.2015.AC3LD.BDRiP.XVID-OMS
Die Weihnachtszeit ist die magischste Zeit des Jahres, doch es gibt eine düstere Weihnachtslegende, die dunkle Schatten auf das Fest wirft. Ein uralter Volksglaube warnt vor Krampus, der auf einen Jahrhunderte alten Mythos in der Geschichte der europäischen Kulturen zurückgeht. Es ist ein gehörntes Biest, das unartige Kinder an Weihnachten fängt - Krampus ist teils Frohsinn und teils Monster. Der Weihnachtsmann belohnt die braven Kinder, Krampus bestraft die bösen. Der Weihnachtsmann bringt Fröhlichkeit und Freude, Krampus entfesselt Dunkelheit und Chaos. Der Weihnachtsmann verteilt Geschenke, Krampus sammelt Seelen ein.
Direct Download Links | DDL-Links

Ähnliche Releases der Kategorie