Kung.Fu.Panda.3.2016.German.DTS.DL.720p.BluRay.x264-Pate

4. Juli 2016 von
Kung.Fu.Panda.3.2016.German.DTS.DL.720p.BluRay.x264-Pate Warez-World
Aufrufe: 50 Hits
Vote 4 Us
Release:
Kung Fu Panda 3 BD
Genre:
Animation
Größe:
4394 MB
Passwort:
Warez-World.org
Sprachen:
Video Codec:
MPEG-4 H.264 / AVC
Audio Stream:
DTS 5.1
Bewertung:
Video Vorschau:
Online Stream:
Info:
Zeige NFOVerberge NFO
General
Unique ID                                : 232637885848681546928924060703096769075 (0xAF046D538239BB00B737EEA6EBBB0A33)
Complete name                            : F:MoviesKung Fu Panda 3 2016 German DTS DL 720p BluRay x264-PateKung.Fu.Panda.3.2016.German.DTS.DL.720p.BluRay.x264-Patekp3.72.mkv
Format                                   : Matroska
Format version                           : Version 2
File size                                : 4.38 GiB
Duration                                 : 1h 34mn
Overall bit rate                         : 6 610 Kbps
Movie name                               : Pate
Encoded date                             : UTC 2016-07-01 13:40:56
Writing application                      : mkvmerge v3.4.0 ('Rapunzel') gebaut am May 15 2010 09:38:20
Writing library                          : libebml v0.8.0 + libmatroska v0.9.0

Video
ID                                       : 1
Format                                   : AVC
Format/Info                              : Advanced Video Codec
Format profile                           : High@L4.1
Format settings, CABAC                   : Yes
Format settings, ReFrames                : 9 frames
Codec ID                                 : V_MPEG4/ISO/AVC
Duration                                 : 1h 34mn
Bit rate                                 : 4 201 Kbps
Width                                    : 1 280 pixels
Height                                   : 544 pixels
Display aspect ratio                     : 2.35:1
Frame rate mode                          : Constant
Frame rate                               : 23.976 fps
Color space                              : YUV
Chroma subsampling                       : 4:2:0
Bit depth                                : 8 bits
Scan type                                : Progressive
Bits/(Pixel*Frame)                       : 0.252
Stream size                              : 2.79 GiB (64%)
Title                                    : 720p Pate
Writing library                          : x264 core 148 r2694 3b70645
Encoding settings                        : cabac=1 / ref=9 / deblock=1:-3:-3 / analyse=0x3:0x113 / me=umh / subme=9 / psy=1 / psy_rd=1.10:0.00 / mixed_ref=1 / me_range=24 / chroma_me=1 / trellis=2 / 8x8dct=1 / cqm=0 / deadzone=21,11 / fast_pskip=0 / chroma_qp_offset=-2 / threads=12 / lookahead_threads=1 / sliced_threads=0 / nr=0 / decimate=1 / interlaced=0 / bluray_compat=0 / constrained_intra=0 / bframes=5 / b_pyramid=2 / b_adapt=1 / b_bias=0 / direct=3 / weightb=1 / open_gop=0 / weightp=2 / keyint=250 / keyint_min=23 / scenecut=40 / intra_refresh=0 / rc=crf / mbtree=0 / crf=16.0 / qcomp=0.60 / qpmin=14 / qpmax=69 / qpstep=4 / ip_ratio=1.40 / pb_ratio=1.30 / aq=1:1.00
Language                                 : English
Default                                  : Yes
Forced                                   : Yes

Audio #1
ID                                       : 2
Format                                   : DTS
Format/Info                              : Digital Theater Systems
Mode                                     : 16
Format settings, Endianness              : Big
Codec ID                                 : A_DTS
Duration                                 : 1h 34mn
Bit rate mode                            : Constant
Bit rate                                 : 768 Kbps
Channel(s)                               : 6 channels
Channel positions                        : Front: L C R, Side: L R, LFE
Sampling rate                            : 48.0 KHz
Bit depth                                : 24 bits
Compression mode                         : Lossy
Delay relative to video                  : 11ms
Stream size                              : 521 MiB (12%)
Language                                 : German
Default                                  : Yes
Forced                                   : Yes

Audio #2
ID                                       : 3
Format                                   : DTS
Format/Info                              : Digital Theater Systems
Format profile                           : ES
Mode                                     : 16
Format settings, Endianness              : Big
Codec ID                                 : A_DTS
Duration                                 : 1h 34mn
Bit rate mode                            : Constant
Bit rate                                 : 1 509 Kbps
Channel(s)                               : 6 channels
Channel positions                        : Front: L C R, Side: L R, LFE
Sampling rate                            : 48.0 KHz
Bit depth                                : 24 bits
Compression mode                         : Lossy
Delay relative to video                  : 11ms
Stream size                              : 1.00 GiB (23%)
Language                                 : English
Default                                  : No
Forced                                   : No

Text #1
ID                                       : 4
Format                                   : VobSub
Muxing mode                              : zlib
Codec ID                                 : S_VOBSUB
Codec ID/Info                            : Picture based subtitle format used on DVDs
Language                                 : German
Default                                  : No
Forced                                   : No

Text #2
ID                                       : 5
Format                                   : VobSub
Muxing mode                              : zlib
Codec ID                                 : S_VOBSUB
Codec ID/Info                            : Picture based subtitle format used on DVDs
Language                                 : English
Default                                  : No
Forced                                   : No

Menu
00:00:00.000                             : en:00:00:00.000
00:05:21.780                             : en:00:05:21.780
00:08:10.240                             : en:00:08:10.240
00:10:00.016                             : en:00:10:00.016
00:12:26.037                             : en:00:12:26.037
00:15:24.215                             : en:00:15:24.215
00:19:08.230                             : en:00:19:08.230
00:24:39.395                             : en:00:24:39.395
00:30:17.607                             : en:00:30:17.607
00:33:53.990                             : en:00:33:53.990
00:36:18.259                             : en:00:36:18.259
00:39:55.643                             : en:00:39:55.643
00:43:32.652                             : en:00:43:32.652
00:46:45.845                             : en:00:46:45.845
00:51:41.181                             : en:00:51:41.181
00:56:04.611                             : en:00:56:04.611
00:59:48.168                             : en:00:59:48.168
01:02:11.353                             : en:01:02:11.353
01:05:26.965                             : en:01:05:26.965
01:10:16.838                             : en:01:10:16.838
01:14:06.901                             : en:01:14:06.901
01:17:06.580                             : en:01:17:06.580
01:20:34.788                             : en:01:20:34.788
01:24:21.181                             : en:01:24:21.181
Beschreibung:
Kung.Fu.Panda.3.2016.German.DTS.DL.720p.BluRay.x264-Pate
2016 kehrt eine der erfolgreichsten Animations-Franchises der Welt mit ihrer bisher größten Abenteuerkomödie ins Kino zurück: KUNG FU PANDA 3. Nach der überraschenden Rückkehr von Pos verloren geglaubtem Vater macht sich das wiedervereinte Duo auf den Weg in ein geheimes Panda-Paradies, wo sie jede Menge lustige neue Pandas kennenlernen. Der Spaß hat jedoch ein Ende, als der übermächtige Bösewicht Kai in China einen Kung Fu Meister nach dem anderen bezwingt und Po vor eine schier unlösbare Aufgabe stellt: er muss aus einem Dorf voller lebenslustiger, schwerfälliger Pandas ultimative Kung Fu Panda-Kämpfer machen!
Direct Download Links | DDL-Links

Ähnliche Releases der Kategorie