Legend.German.2015.AC3.BDRiP.XVID-OMS

22. April 2016 von
Legend.German.2015.AC3.BDRiP.XVID-OMS Warez-World
Aufrufe: 54 Hits
Vote 4 Us
Release:
Legend BD-RIP
Genre:
Thriller
Laufzeit:
131 Min.
Größe:
1731 MB
Passwort:
Warez-World.org
Sprachen:
Video Codec:
MPEG-4 DivX / Xvid
Audio Stream:
Dolby Digital 5.1
Bewertung:
Video Vorschau:
Online Stream:
Info:
Zeige NFOVerberge NFO
General
Format                                   : AVI
Format/Info                              : Audio Video Interleave
Format profile                           : OpenDML
File size                                : 1.69 GiB
Duration                                 : 2h 11mn
Overall bit rate                         : 1 847 Kbps
Movie name                               : Legend.German.2015.AC3.BDRiP.XVID-OMS
Genre                                    : Krimi
Recorded date                            : 2015
Writing application                      : Lavf57.2.100

Video
ID                                       : 0
Format                                   : MPEG-4 Visual
Format settings, BVOP                    : No
Format settings, QPel                    : No
Format settings, GMC                     : No warppoints
Format settings, Matrix                  : Default (H.263)
Codec ID                                 : DIVX
Codec ID/Info                            : Project Mayo
Codec ID/Hint                            : DivX 4
Duration                                 : 2h 11mn
Bit rate                                 : 1 388 Kbps
Width                                    : 720 pixels
Height                                   : 300 pixels
Display aspect ratio                     : 2.40:1
Frame rate                               : 24.000 fps
Color space                              : YUV
Chroma subsampling                       : 4:2:0
Bit depth                                : 8 bits
Scan type                                : Progressive
Compression mode                         : Lossy
Bits/(Pixel*Frame)                       : 0.268
Stream size                              : 1.27 GiB (75%)
Writing library                          : XviD 67

Audio
ID                                       : 1
Format                                   : AC-3
Format/Info                              : Audio Coding 3
Mode extension                           : CM (complete main)
Format settings, Endianness              : Big
Codec ID                                 : 2000
Duration                                 : 2h 11mn
Bit rate mode                            : Constant
Bit rate                                 : 448 Kbps
Channel(s)                               : 6 channels
Channel positions                        : Front: L C R, Side: L R, LFE
Sampling rate                            : 48.0 KHz
Bit depth                                : 16 bits
Compression mode                         : Lossy
Stream size                              : 420 MiB (24%)
Alignment                                : Aligned on interleaves
Interleave, duration                     : 32 ms (0.77 video frame)
Language                                 : German

Beschreibung:
Legend.German.2015.AC3.BDRiP.XVID-OMS
Ende der 50er, Anfang der 60er Jahre regieren die Kray-Zwillinge Reggie und Ron gemeinsam mit der Mafia die kriminelle Szene des Londoner Ostens. Als die Geschäfte gut laufen, schlägt ihnen der Ganove Leslie Payne eine Strategie vor, mit der sie ihr Imperium auf die glamourösen Viertel des West-Ends ausweiten können. Nichts scheint die Zwillinge, die London beherrschen und das Establishment unterwandern, aufhalten zu können. Doch als Reggie sich in die zerbrechliche Frances Shea verliebt, gerät alles ins Wanken. Frances will, dass Reggie sich auf ihre Seite schlägt, doch Ron, der nicht alleine bleiben möchte, stellt sich ihr entgegen.
Direct Download Links | DDL-Links

Ähnliche Releases der Kategorie