The.Legend.of.Tarzan.2016.GERMAN.AC3.MiC.DUBBED.TS.XViD-GOT

8. August 2016 von
The.Legend.of.Tarzan.2016.GERMAN.AC3.MiC.DUBBED.TS.XViD-GOT Warez-World
Aufrufe: 63 Hits
Vote 4 Us
Release:
The Legend of Tarzan TS
Genre:
Action
Laufzeit:
110 Min.
Größe:
1481 MB
Passwort:
Warez-World.org
Sprachen:
Video Codec:
MPEG-4 DivX / Xvid
Audio Stream:
Mic
Bewertung:
Video Vorschau:
Online Stream:
Info:
Zeige NFOVerberge NFO
General
Format                                   : AVI
Format/Info                              : Audio Video Interleave
Format profile                           : OpenDML
File size                                : 1.45 GiB
Duration                                 : 1h 45mn
Overall bit rate                         : 1 960 Kbps
Movie name                               : GOT
Writing application                      : Lavf57.44.100

Video
ID                                       : 0
Format                                   : MPEG-4 Visual
Format settings, BVOP                    : No
Format settings, QPel                    : No
Format settings, GMC                     : No warppoints
Format settings, Matrix                  : Default (H.263)
Codec ID                                 : XVID
Codec ID/Hint                            : XviD
Duration                                 : 1h 45mn
Bit rate                                 : 1 761 Kbps
Width                                    : 720 pixels
Height                                   : 304 pixels
Display aspect ratio                     : 2.35:1
Frame rate                               : 30.000 fps
Color space                              : YUV
Chroma subsampling                       : 4:2:0
Bit depth                                : 8 bits
Scan type                                : Progressive
Compression mode                         : Lossy
Bits/(Pixel*Frame)                       : 0.268
Stream size                              : 1.30 GiB (90%)
Writing library                          : XviD 67

Audio
ID                                       : 1
Format                                   : AC-3
Format/Info                              : Audio Coding 3
Mode extension                           : CM (complete main)
Format settings, Endianness              : Big
Codec ID                                 : 2000
Duration                                 : 1h 42mn
Bit rate mode                            : Constant
Bit rate                                 : 192 Kbps
Channel(s)                               : 1 channel
Channel positions                        : Front: C
Sampling rate                            : 44.1 KHz
Bit depth                                : 16 bits
Compression mode                         : Lossy
Stream size                              : 141 MiB (9%)
Alignment                                : Aligned on interleaves
Interleave, duration                     : 36 ms (1.08 video frame)

Beschreibung:
The.Legend.of.Tarzan.2016.GERMAN.AC3.MiC.DUBBED.TS.XViD-GOT
Vor Jahren hat der als Tarzan bekannte Brite den afrikanischen Dschungel verlassen, um als adliger John Clayton, Lord Greystoke, mit seiner geliebten Frau Jane ein standesgemäßes Leben zu führen. Jetzt wird er vom Parlament als Sonderbotschafter für Handelsfragen zurück in den Kongo geschickt, ohne zu ahnen, dass er nur als Schachfigur in einem tödlichen Komplott aus Rache und Habgier dienen soll - eingefädelt hat es der Belgier Leon Rom. Andererseits begreifen auch die Drahtzieher dieses mörderischen Plans nicht im Mindesten, welche Lawine sie damit ins Rollen bringen.
Direct Download Links | DDL-Links

Ähnliche Releases der Kategorie