The.Legend.of.Tarzan.German.2016.AC3MD.WEBRiP.XVID-OMS

17. August 2016 von
The.Legend.of.Tarzan.German.2016.AC3MD.WEBRiP.XVID-OMS Warez-World
Aufrufe: 83 Hits
Vote 4 Us
Release:
The Legend of Tarzan WEB-RIP
Genre:
Action
Laufzeit:
106 Min.
Größe:
1121 MB
Passwort:
Warez-World.org
Sprachen:
Video Codec:
MPEG-4 DivX / Xvid
Audio Stream:
Mic
Bewertung:
Video Vorschau:
Online Stream:
Hinweise:
Theatrical
Info:
Zeige NFOVerberge NFO
General
Format                                   : AVI
Format/Info                              : Audio Video Interleave
Format profile                           : OpenDML
File size                                : 1.09 GiB
Duration                                 : 1h 49mn
Overall bit rate                         : 1 430 Kbps
Movie name                               : The.Legend.of.Tarzan.German.2016.AC3MD.WEBRiP.XVID-OMS
Genre                                    : Abenteuer
Recorded date                            : 2016
Writing application                      : Lavf57.2.100

Video
ID                                       : 0
Format                                   : MPEG-4 Visual
Format settings, BVOP                    : No
Format settings, QPel                    : No
Format settings, GMC                     : No warppoints
Format settings, Matrix                  : Default (H.263)
Codec ID                                 : DIVX
Codec ID/Info                            : Project Mayo
Codec ID/Hint                            : DivX 4
Duration                                 : 1h 49mn
Bit rate                                 : 1 224 Kbps
Width                                    : 720 pixels
Height                                   : 304 pixels
Display aspect ratio                     : 2.40:1
Frame rate                               : 24.000 fps
Color space                              : YUV
Chroma subsampling                       : 4:2:0
Bit depth                                : 8 bits
Scan type                                : Progressive
Compression mode                         : Lossy
Bits/(Pixel*Frame)                       : 0.233
Stream size                              : 959 MiB (86%)
Writing library                          : XviD 67

Audio
ID                                       : 1
Format                                   : AC-3
Format/Info                              : Audio Coding 3
Mode extension                           : CM (complete main)
Format settings, Endianness              : Big
Codec ID                                 : 2000
Duration                                 : 1h 49mn
Bit rate mode                            : Constant
Bit rate                                 : 192 Kbps
Channel(s)                               : 2 channels
Channel positions                        : Front: L R
Sampling rate                            : 48.0 KHz
Bit depth                                : 16 bits
Compression mode                         : Lossy
Stream size                              : 150 MiB (13%)
Alignment                                : Aligned on interleaves
Interleave, duration                     : 32 ms (0.77 video frame)
Language                                 : German

Beschreibung:
The.Legend.of.Tarzan.German.2016.AC3MD.WEBRiP.XVID-OMS
Vor Jahren hat der als Tarzan bekannte Brite den afrikanischen Dschungel verlassen, um als adliger John Clayton, Lord Greystoke, mit seiner geliebten Frau Jane ein standesgemäßes Leben zu führen. Jetzt wird er vom Parlament als Sonderbotschafter für Handelsfragen zurück in den Kongo geschickt, ohne zu ahnen, dass er nur als Schachfigur in einem tödlichen Komplott aus Rache und Habgier dienen soll - eingefädelt hat es der Belgier Leon Rom. Andererseits begreifen auch die Drahtzieher dieses mörderischen Plans nicht im Mindesten, welche Lawine sie damit ins Rollen bringen.
Direct Download Links | DDL-Links

Ähnliche Releases der Kategorie