London.Has.Fallen.2016.German.AC3LD.WEBRip.XviD-iNTERFilm

21. April 2016 von
London.Has.Fallen.2016.German.AC3LD.WEBRip.XviD-iNTERFilm Warez-World
Aufrufe: 98 Hits
Vote 4 Us
Release:
London Has Fallen WEB-RIP
Genre:
Thriller
Laufzeit:
99 Min.
Größe:
1245 MB
Passwort:
Warez-World.org
Sprachen:
Video Codec:
MPEG-4 DivX / Xvid
Audio Stream:
Line
Bewertung:
Video Vorschau:
Online Stream:
Info:
Zeige NFOVerberge NFO
General
Format                                   : AVI
Format/Info                              : Audio Video Interleave
Format profile                           : OpenDML
Format settings                          : rec
File size                                : 1.22 GiB
Duration                                 : 1h 37mn
Overall bit rate                         : 1 788 Kbps
Writing application                      : AVI-Mux GUI 1.17.8.3, Feb 16 201019:42:50

Video
ID                                       : 0
Format                                   : xvid
Codec ID                                 : xvid
Duration                                 : 1h 37mn
Bit rate                                 : 1 430 Kbps
Width                                    : 720 pixels
Height                                   : 304 pixels
Display aspect ratio                     : 2.35:1
Frame rate                               : 24.000 fps
Bits/(Pixel*Frame)                       : 0.272
Stream size                              : 996 MiB (80%)

Audio #1
ID                                       : 1
Format                                   : AC-3
Format/Info                              : Audio Coding 3
Mode extension                           : CM (complete main)
Format settings, Endianness              : Big
Codec ID                                 : 2000
Duration                                 : 1h 37mn
Bit rate mode                            : Constant
Bit rate                                 : 224 Kbps
Channel(s)                               : 2 channels
Channel positions                        : Front: L R
Sampling rate                            : 48.0 KHz
Compression mode                         : Lossy
Stream size                              : 156 MiB (13%)
Alignment                                : Aligned on interleaves
Interleave, duration                     : 64 ms (1.54 video frames)
Interleave, preload duration             : 192 ms
Title                                    : pso-london-web-sd

Audio #2
ID                                       : 2
Format                                   : MPEG Audio
Format version                           : Version 1
Format profile                           : Layer 3
Mode                                     : Joint stereo
Mode extension                           : MS Stereo
Codec ID                                 : 55
Codec ID/Hint                            : MP3
Duration                                 : 1h 37mn
Bit rate mode                            : Constant
Bit rate                                 : 128 Kbps
Channel(s)                               : 2 channels
Sampling rate                            : 44.1 KHz
Compression mode                         : Lossy
Stream size                              : 89.1 MiB (7%)
Alignment                                : Aligned on interleaves
Interleave, duration                     : 491 ms (11.79 video frames)
Interleave, preload duration             : 208 ms
Writing library                          : LAME3.98.4UU+++Á++++++++++++

Beschreibung:
London.Has.Fallen.2016.German.AC3LD.WEBRip.XviD-iNTERFilm
Staatstrauer in England: Nach dem plötzlichen, rätselhaften Tod des Premierministers ist seine Beerdigung ein Pflichttermin für die Staatsoberhäupter der westlichen Welt. Selbstverständlich nimmt auch US-Präsident Benjamin Asher teil, begleitet von seinem Leibwächter Mike Banning. Doch was als die bestgeschützte Veranstaltung auf dem Planeten beginnt, entwickelt sich schnell zu einem tödlichen Spießrutenlauf: In einer gigantischen Verschwörung werden die mächtigsten Führer der Erde einer nach dem anderen Opfer brutaler Anschläge. Nur mit knapper Not kann Mike Banning das Leben des US-Präsidenten schützen und mit ihm in den Untergrund fliehen. Doch die Terroristen verlangen seine Auslieferung und überziehen die britische Hauptstadt mit einer Welle der Zerstörung. Während Vizepräsident Trumbull versucht, das gnadenlose Ultimatum hinauszuzögern, nimmt Banning den Kampf auf...
Direct Download Links | DDL-Links

Ähnliche Releases der Kategorie