Mr.and.Mrs.Smith.Directors.Cut.2005.German.AC3D.HDRip.x264-FuN

2. Juli 2016 von
Mr.and.Mrs.Smith.Directors.Cut.2005.German.AC3D.HDRip.x264-FuN Warez-World
Aufrufe: 12 Hits
Vote 4 Us
Release:
Mr. and Mrs. Smith BD-RIP
Genre:
Comedy
Laufzeit:
115 Min.
Größe:
1696 MB
Passwort:
Warez-World.org
Sprachen:
Video Codec:
MPEG-4 H.264 / AVC
Audio Stream:
Dolby Digital 5.1
Bewertung:
Video Vorschau:
Online Stream:
Hinweise:
Director's Cut
Info:
Zeige NFOVerberge NFO
General
Format                                   : MPEG-4
Format profile                           : Base Media
Codec ID                                 : isom
File size                                : 1.66 GiB
Duration                                 : 2h 5mn
Overall bit rate                         : 1 894 Kbps
Encoded date                             : UTC 2016-06-25 04:40:52
Tagged date                              : UTC 2016-06-25 04:40:52

Video
ID                                       : 1
Format                                   : AVC
Format/Info                              : Advanced Video Codec
Format settings, CABAC                   : Yes
Format settings, ReFrames                : 4 frames
Codec ID                                 : avc1
Codec ID/Info                            : Advanced Video Coding
Duration                                 : 2h 5mn
Bit rate                                 : 1 450 Kbps
Maximum bit rate                         : 11.1 Mbps
Width                                    : 960 pixels
Height                                   : 400 pixels
Display aspect ratio                     : 2.40:1
Frame rate mode                          : Variable
Frame rate                               : 23.976 fps
Minimum frame rate                       : 8.197 fps
Maximum frame rate                       : 24.390 fps
Color space                              : YUV
Chroma subsampling                       : 4:2:0
Bit depth                                : 8 bits
Scan type                                : Progressive
Bits/(Pixel*Frame)                       : 0.157
Stream size                              : 1.26 GiB (76%)
Writing library                          : x264 core 142 r2479 dd79a61
Encoding settings                        : cabac=1 / ref=3 / deblock=1:0:0 / analyse=0x3:0x113 / me=hex / subme=7 / psy=1 / psy_rd=1.00:0.00 / mixed_ref=1 / me_range=16 / chroma_me=1 / trellis=1 / 8x8dct=1 / cqm=0 / deadzone=21,11 / fast_pskip=1 / chroma_qp_offset=-2 / threads=6 / lookahead_threads=1 / sliced_threads=0 / nr=0 / decimate=1 / interlaced=0 / bluray_compat=0 / constrained_intra=0 / bframes=3 / b_pyramid=2 / b_adapt=1 / b_bias=0 / direct=1 / weightb=1 / open_gop=0 / weightp=2 / keyint=240 / keyint_min=24 / scenecut=40 / intra_refresh=0 / rc_lookahead=40 / rc=abr / mbtree=1 / bitrate=1450 / ratetol=1.0 / qcomp=0.60 / qpmin=0 / qpmax=69 / qpstep=4 / ip_ratio=1.40 / aq=1:1.00
Encoded date                             : UTC 2036-02-06 06:28:16
Tagged date                              : UTC 2016-06-25 04:45:28
Color range                              : Limited
Color primaries                          : BT.709
Transfer characteristics                 : BT.709
Matrix coefficients                      : BT.709

Audio
ID                                       : 2
Format                                   : AC-3
Format/Info                              : Audio Coding 3
Mode extension                           : CM (complete main)
Format settings, Endianness              : Big
Codec ID                                 : ac-3
Duration                                 : 2h 5mn
Bit rate mode                            : Constant
Bit rate                                 : 448 Kbps
Channel(s)                               : 6 channels
Channel positions                        : Front: L C R, Side: L R, LFE
Sampling rate                            : 48.0 KHz
Bit depth                                : 16 bits
Compression mode                         : Lossy
Stream size                              : 401 MiB (24%)
Language                                 : German
Encoded date                             : UTC 2016-06-25 04:44:25
Tagged date                              : UTC 2016-06-25 04:45:28

Beschreibung:
Mr.and.Mrs.Smith.Directors.Cut.2005.German.AC3D.HDRip.x264-FuN
Ann und David Smith scheinen eine glückliche Ehe zu führen. Doch als Ann ihren Mann fragt, ob er sie noch einmal heiraten würde, gibt er ohne zu Überlegen zu, dass er seine frühere Freiheit vermisst und es deshalb nicht wieder tun würde. Dann stellt sich auch noch heraus, dass ihre Ehe wegen einer verwaltungstechnischen Regel für ungültig erklärt wird. Ann wirft David aus der gemeinsamen Wohnung, woraufhin der erkennt, was ihm wirklich an ihr liegt, und damit beginnt, um sie zu kämpfen.
Direct Download Links | DDL-Links

Ähnliche Releases der Kategorie