Never.Back.Down.No.Surrender.2016.DVDRip.XviD.AC3-EVO

31. Mai 2016 von
Never.Back.Down.No.Surrender.2016.DVDRip.XviD.AC3-EVO Warez-World
Aufrufe: 82 Hits
Vote 4 Us
Release:
Never Back Down No Surrender DVD-RIP
Genre:
Drama
Laufzeit:
97 Min.
Größe:
1427 MB
Passwort:
Warez-World.org
Sprachen:
Video Codec:
MPEG-4 DivX / Xvid
Audio Stream:
Dolby Digital 5.1
Bewertung:
Video Vorschau:
Online Stream:
Info:
Zeige NFOVerberge NFO
[URL=http://imagecurl.com/viewer.php?file=89408986993621088303.png][IMG]http://imagecurl.com/images/89408986993621088303_thumb.png[/IMG][/URL]
[URL=http://imagecurl.com/viewer.php?file=26537062112821551284.png][IMG]http://imagecurl.com/images/26537062112821551284_thumb.png[/IMG][/URL]
[URL=http://imagecurl.com/viewer.php?file=59232086275828883821.png][IMG]http://imagecurl.com/images/59232086275828883821_thumb.png[/IMG][/URL]
[URL=http://imagecurl.com/viewer.php?file=92239364196956964366.png][IMG]http://imagecurl.com/images/92239364196956964366_thumb.png[/IMG][/URL]
[URL=http://imagecurl.com/viewer.php?file=56045904654342487849.png][IMG]http://imagecurl.com/images/56045904654342487849_thumb.png[/IMG][/URL]
[URL=http://imagecurl.com/viewer.php?file=65168523252137216966.png][IMG]http://imagecurl.com/images/65168523252137216966_thumb.png[/IMG][/URL]



[mediainfo]
Video
ID                                       : 0
Format                                   : MPEG-4 Visual
Format profile                           : Simple@L3
Format settings, BVOP                    : No
Format settings, QPel                    : No
Format settings, GMC                     : No warppoints
Format settings, Matrix                  : Default (H.263)
Codec ID                                 : XVID
Codec ID/Hint                            : XviD
Duration                                 : 1h 41mn
Source duration                          : 1h 41mn
Bit rate                                 : 1 509 Kbps
Width                                    : 720 pixels
Height                                   : 400 pixels
Display aspect ratio                     : 16:9
Frame rate                               : 23.976 (24000/1001) fps
Color space                              : YUV
Chroma subsampling                       : 4:2:0
Bit depth                                : 8 bits
Scan type                                : Progressive
Compression mode                         : Lossy
Bits/(Pixel*Frame)                       : 0.219
Stream size                              : 1.07 GiB (77%)
Writing library                          : XviD 1.1.2 (UTC 2006-11-01)

Audio
ID                                       : 1
Format                                   : AC-3
Format/Info                              : Audio Coding 3
Mode extension                           : CM (complete main)
Format settings, Endianness              : Big
Codec ID                                 : 2000
Duration                                 : 1h 41mn
Bit rate mode                            : Constant
Bit rate                                 : 448 Kbps
Channel(s)                               : 6 channels
Channel positions                        : Front: L C R, Side: L R, LFE
Sampling rate                            : 48.0 KHz
Frame rate                               : 31.250 fps (1536 spf)
Compression mode                         : Lossy
Stream size                              : 325 MiB (23%)
Alignment                                : Aligned on interleaves
Interleave, duration                     : 32 ms (0.77 video frame)



[/mediainfo]
Beschreibung:
Never.Back.Down.No.Surrender.2016.DVDRip.XviD.AC3-EVO
Durch einen durchtriebenen Kampf-Promoter landet der MMA-Weltmeister Diego Carter in der Welt illegaler Käfigkämpfe in zwielichtigen Untergrundclubs. Schnell merkt er, dass es für ihn hier nicht um Ruhm und Ehre, sondern um das nackte Überleben geht. Und wer um Leben oder Tod kämpft, darf niemals aufgeben, auch wenn er dafür töten muss.
Direct Download Links | DDL-Links

Ähnliche Releases der Kategorie