Now.You.See.Me.Die.Unfassbaren.2.German.2016.AC3MD.TS.XVID-OMS

16. August 2016 von
Now.You.See.Me.Die.Unfassbaren.2.German.2016.AC3MD.TS.XVID-OMS Warez-World
Aufrufe: 161 Hits
Vote 4 Us
Release:
Die Unfassbaren 2 TS
Genre:
Comedy
Laufzeit:
115 Min.
Größe:
1535 MB
Passwort:
Warez-World.org
Sprachen:
Video Codec:
MPEG-4 DivX / Xvid
Audio Stream:
Mic
Bewertung:
Video Vorschau:
Online Stream:
Info:
Zeige NFOVerberge NFO
General
Format                                   : AVI
Format/Info                              : Audio Video Interleave
Format profile                           : OpenDML
File size                                : 1.49 GiB
Duration                                 : 1h 57mn
Overall bit rate                         : 1 816 Kbps
Movie name                               : Now.You.See.Me.Die.Unfassbaren.2.German.2016.AC3MD.TS.XVID-OMS
Genre                                    : Action
Recorded date                            : 2016
Writing application                      : Lavf57.2.100

Video
ID                                       : 0
Format                                   : MPEG-4 Visual
Format settings, BVOP                    : No
Format settings, QPel                    : No
Format settings, GMC                     : No warppoints
Format settings, Matrix                  : Default (H.263)
Codec ID                                 : DIVX
Codec ID/Info                            : Project Mayo
Codec ID/Hint                            : DivX 4
Duration                                 : 1h 57mn
Bit rate                                 : 1 610 Kbps
Width                                    : 720 pixels
Height                                   : 304 pixels
Display aspect ratio                     : 2.35:1
Frame rate                               : 30.000 fps
Color space                              : YUV
Chroma subsampling                       : 4:2:0
Bit depth                                : 8 bits
Scan type                                : Progressive
Compression mode                         : Lossy
Bits/(Pixel*Frame)                       : 0.245
Stream size                              : 1.32 GiB (89%)
Writing library                          : XviD 67

Audio
ID                                       : 1
Format                                   : AC-3
Format/Info                              : Audio Coding 3
Mode extension                           : CM (complete main)
Format settings, Endianness              : Big
Codec ID                                 : 2000
Duration                                 : 1h 57mn
Bit rate mode                            : Constant
Bit rate                                 : 192 Kbps
Channel(s)                               : 2 channels
Channel positions                        : Front: L R
Sampling rate                            : 48.0 KHz
Bit depth                                : 16 bits
Compression mode                         : Lossy
Stream size                              : 161 MiB (11%)
Alignment                                : Aligned on interleaves
Interleave, duration                     : 32 ms (0.96 video frame)
Language                                 : German

Beschreibung:
Now.You.See.Me.Die.Unfassbaren.2.German.2016.AC3MD.TS.XVID-OMS
Wie raubt man eine Bank aus, ohne selbst anwesend zu sein? Ganz einfach: Man ist Magier und lässt die Dinge für sich arbeiten. Das Illusionisten-Quartett "The Four Horsemen" verblüfft zur Faszination des Publikums mit jeder Menge High-Tech in seinen Live-Shows. Als kleine Überraschung erhalten die Zuschauer am Ende das Geld, das die Magier gerade auf einem anderen Kontinent einem Wirtschaftskriminellen und seiner Bank abgeluchst haben. Reine Illusion oder was steckt dahinter? Das sollen FBI-Agent Dylan und Interpol-Agentin Alma herausfinden.
Direct Download Links | DDL-Links

Ähnliche Releases der Kategorie